#VERSION:0.83;
#TITLE:All Around The World;
#SUBTITLE:;
#ARTIST:Stacey Q;
#TITLETRANSLIT:;
#SUBTITLETRANSLIT:;
#ARTISTTRANSLIT:;
#GENRE:;
#ORIGIN:;
#CREDIT:;
#BANNER:All Around The World.png;
#BACKGROUND:All Around The World-bg.png;
#PREVIEWVID:;
#JACKET:All Around The World-jacket.png;
#CDIMAGE:;
#DISCIMAGE:;
#LYRICSPATH:;
#CDTITLE:;
#MUSIC:All Around The World.ogg;
#OFFSET:-0.437000;
#SAMPLESTART:48.039993;
#SAMPLELENGTH:15.000000;
#SELECTABLE:YES;
#BPMS:0.000=138.000;
#STOPS:;
#DELAYS:;
#WARPS:;
#TIMESIGNATURES:0.000=4=4;
#TICKCOUNTS:0.000=4;
#COMBOS:0.000=1;
#SPEEDS:0.000=1.000=0.000=0;
#SCROLLS:0.000=1.000;
#FAKES:;
#LABELS:0.000=Song Start;
#BGCHANGES:;
#KEYSOUNDS:;
#ATTACKS:
;

//---------------dance-single - XLev450X----------------
#NOTEDATA:;
#CHARTNAME:XLev450X;
#STEPSTYPE:dance-single;
#DESCRIPTION:XLev450X;
#CHARTSTYLE:;
#DIFFICULTY:Beginner;
#METER:1;
#RADARVALUES:0.083231,0.140260,0.010789,0.000000,0.000000,54.000000,53.000000,1.000000,0.000000,0.000000,0.000000,0.000000,0.000000,0.000000,0.083231,0.140260,0.010789,0.000000,0.000000,54.000000,53.000000,1.000000,0.000000,0.000000,0.000000,0.000000,0.000000,0.000000;
#CREDIT:XLev450X;
#NOTES:
// measure 0
0000
0000
0000
0000
,  // measure 1
0000
0000
0000
0000
,  // measure 2
0000
0000
0000
0000
,  // measure 3
0000
0000
0000
0000
,  // measure 4
0001
0000
0001
0000
,  // measure 5
0001
0000
0000
0000
,  // measure 6
0010
0000
0010
0000
,  // measure 7
0010
0000
0000
0000
,  // measure 8
0100
0000
0100
0000
,  // measure 9
0100
0000
0000
0000
,  // measure 10
1000
0000
1000
0000
,  // measure 11
1000
0000
0000
0000
,  // measure 12
0001
0000
0000
0000
,  // measure 13
0001
0000
0000
0000
,  // measure 14
0001
0000
0000
0000
,  // measure 15
0000
0000
0000
0000
,  // measure 16
1000
0000
0000
0000
,  // measure 17
1000
0000
0000
0000
,  // measure 18
1000
0000
0000
0000
,  // measure 19
0000
0000
0000
0000
,  // measure 20
0010
0000
0010
0000
,  // measure 21
0010
0000
0000
0000
,  // measure 22
0100
0000
0000
0000
,  // measure 23
0100
0000
0000
0000
,  // measure 24
0100
0000
0100
0000
,  // measure 25
0100
0000
0000
0000
,  // measure 26
0010
0000
0000
0000
,  // measure 27
0010
0000
0000
0000
,  // measure 28
0001
0000
0000
0000
,  // measure 29
1000
0000
0000
0000
,  // measure 30
0001
0000
0000
0000
,  // measure 31
0010
0000
0000
0000
,  // measure 32
0100
0000
0000
0000
,  // measure 33
0010
0000
0000
0000
,  // measure 34
1000
0000
0000
0000
,  // measure 35
0100
0000
0000
0000
,  // measure 36
0001
0000
0000
0000
,  // measure 37
0000
0000
0000
0000
,  // measure 38
1000
0000
0000
0000
,  // measure 39
0000
0000
0000
0000
,  // measure 40
0001
0000
0000
0000
,  // measure 41
0000
0000
0000
0000
,  // measure 42
0010
0000
0000
0000
,  // measure 43
0000
0000
0000
0000
,  // measure 44
1000
0000
1000
0000
,  // measure 45
1000
0000
0000
0000
,  // measure 46
0001
0000
0001
0000
,  // measure 47
0001
0000
0000
0000
,  // measure 48
0010
0000
0010
0000
,  // measure 49
0010
0000
0000
0000
,  // measure 50
0100
0000
0100
0000
,  // measure 51
0100
0000
0000
0000
,  // measure 52
1001
0000
0000
0000
;

//---------------dance-single - XLev450X----------------
#NOTEDATA:;
#CHARTNAME:XLev450X;
#STEPSTYPE:dance-single;
#DESCRIPTION:XLev450X;
#CHARTSTYLE:;
#DIFFICULTY:Easy;
#METER:4;
#RADARVALUES:0.209619,0.224416,0.043157,0.237363,0.000000,136.000000,132.000000,4.000000,22.000000,0.000000,0.000000,0.000000,0.000000,0.000000,0.209619,0.224416,0.043157,0.237363,0.000000,136.000000,132.000000,4.000000,22.000000,0.000000,0.000000,0.000000,0.000000,0.000000;
#CREDIT:XLev450X;
#NOTES:
// measure 0
0000
0000
0000
0000
,  // measure 1
0000
0000
0000
0000
,  // measure 2
0000
0000
0000
0000
,  // measure 3
0000
0000
0000
0000
,  // measure 4
0001
1000
0001
0000
,  // measure 5
0010
1000
0010
0100
,  // measure 6
0001
1000
0001
0000
,  // measure 7
1000
1000
0010
0100
,  // measure 8
0001
0010
0001
0000
,  // measure 9
0001
0001
0100
0000
,  // measure 10
1000
1000
0010
0000
,  // measure 11
2002
0000
0000
3003
,  // measure 12
0001
1000
0001
0000
,  // measure 13
0010
1000
0010
0000
,  // measure 14
0100
0010
0100
0000
,  // measure 15
0001
0010
0001
0000
,  // measure 16
0001
0001
1000
0000
,  // measure 17
0100
0100
0010
0000
,  // measure 18
1000
0010
1000
0000
,  // measure 19
0001
1000
0001
0000
,  // measure 20
0001
0001
1000
0010
,  // measure 21
0100
0000
0010
0000
,  // measure 22
0001
0010
0001
0000
,  // measure 23
0100
1000
0100
0000
,  // measure 24
0010
0000
1000
0010
,  // measure 25
0001
0000
1000
0001
,  // measure 26
1000
0000
0100
0001
,  // measure 27
0200
0000
0001
0301
,  // measure 28
0001
1000
0001
0000
,  // measure 29
0010
0010
0100
0000
,  // measure 30
1000
0100
1000
0000
,  // measure 31
0001
0001
1000
0000
,  // measure 32
0010
0000
0100
0000
,  // measure 33
0010
0001
0010
0000
,  // measure 34
1000
0000
0001
0000
,  // measure 35
1000
1000
0200
0300
,  // measure 36
0020
0000
0000
0030
0200
0000
0000
0300
,  // measure 37
0002
0000
0000
0003
2000
0000
0000
3000
,  // measure 38
0020
0000
0000
0030
0002
0000
0000
0003
,  // measure 39
0200
0000
0000
0300
2000
0000
0000
3000
,  // measure 40
0002
0000
0000
0003
2000
0000
0000
3000
,  // measure 41
0002
0000
0000
0003
0020
0000
0000
0030
,  // measure 42
0200
0000
0000
0300
2000
0000
0000
3000
,  // measure 43
2002
0000
0000
3003
,  // measure 44
0001
1000
0001
0000
,  // measure 45
0010
1000
0010
0000
,  // measure 46
0100
0010
0100
0000
,  // measure 47
0001
0010
0001
0000
,  // measure 48
1000
1000
0100
0000
,  // measure 49
0001
0001
0010
0000
,  // measure 50
0100
0010
0100
0000
,  // measure 51
2002
0000
0000
3003
,  // measure 52
1001
0000
0000
0000
;

//---------------dance-single - XLev450X----------------
#NOTEDATA:;
#CHARTNAME:XLev450X;
#STEPSTYPE:dance-single;
#DESCRIPTION:XLev450X;
#CHARTSTYLE:;
#DIFFICULTY:Medium;
#METER:6;
#RADARVALUES:0.328301,0.364676,0.064735,0.129471,0.021578,213.000000,207.000000,6.000000,12.000000,0.000000,0.000000,0.000000,0.000000,0.000000,0.328301,0.364676,0.064735,0.129471,0.021578,213.000000,207.000000,6.000000,12.000000,0.000000,0.000000,0.000000,0.000000,0.000000;
#CREDIT:XLev450X;
#NOTES:
// measure 0
0000
0000
0000
0000
,  // measure 1
0000
0000
0000
0000
,  // measure 2
0000
0000
0000
0000
,  // measure 3
0000
0000
0000
0000
,  // measure 4
0001
1000
0010
0100
,  // measure 5
0001
0000
1000
0000
0001
1000
0001
0000
,  // measure 6
0010
1000
0100
0010
,  // measure 7
0001
0010
0001
0000
0010
0100
0010
0000
,  // measure 8
1000
0100
0001
1000
,  // measure 9
0001
1000
0001
0000
0010
1000
0010
0000
,  // measure 10
0001
0000
0100
0000
0010
0100
0010
0000
,  // measure 11
1002
0000
1000
0000
1000
1000
2000
3003
,  // measure 12
0001
1000
0001
0010
,  // measure 13
1000
0100
0001
0010
,  // measure 14
0100
0000
1000
0000
0001
1000
0001
0000
,  // measure 15
0010
1000
0001
0000
,  // measure 16
0010
1000
0010
0100
,  // measure 17
0001
0000
1000
0000
0100
0010
0100
0000
,  // measure 18
0001
1000
0001
1000
,  // measure 19
0001
0000
1000
0000
2002
0000
0000
3003
,  // measure 20
0001
1000
0010
1000
,  // measure 21
0100
0010
0100
0000
0001
0000
0010
0000
,  // measure 22
0001
0010
0001
0000
0010
1000
0010
0000
,  // measure 23
0010
0100
0010
0000
0001
0000
1000
0000
,  // measure 24
0001
0000
1000
0000
0010
1000
0010
0000
,  // measure 25
0001
0000
0100
0000
0010
0100
0010
0000
,  // measure 26
0001
0000
1000
0000
0001
0010
0001
0000
,  // measure 27
1002
0000
0000
0000
1000
0000
2000
3003
,  // measure 28
0001
0000
0000
1000
0000
0000
0010
0000
0100
0000
0000
0001
0000
0000
1000
0000
,  // measure 29
0010
0000
0000
0100
0000
0000
1000
0000
0001
0000
0000
0100
0000
0000
0010
0000
,  // measure 30
2000
0000
0002
3003
1000
0010
1000
0000
,  // measure 31
0001
0010
0001
0000
0010
0100
0010
0000
,  // measure 32
0001
0000
1000
0000
0100
0001
0100
0000
,  // measure 33
0010
1000
0001
1000
,  // measure 34
0001
0000
0010
1000
,  // measure 35
0010
0100
0010
0000
0001
0010
0001
0000
,  // measure 36
1000
0001
0100
1000
,  // measure 37
0001
0100
0010
0000
,  // measure 38
1000
0010
0100
0001
,  // measure 39
1000
0001
0100
0000
,  // measure 40
0001
0001
0100
0000
,  // measure 41
1000
1000
0100
0000
,  // measure 42
0010
0100
0010
1000
,  // measure 43
2001
0000
0001
0000
0001
0001
0002
3003
,  // measure 44
0001
1000
0100
0001
,  // measure 45
0100
0010
1000
0000
,  // measure 46
0010
0001
0010
0000
,  // measure 47
0100
1000
0100
0000
,  // measure 48
0010
0010
0100
0000
,  // measure 49
0001
1000
0001
0000
,  // measure 50
0010
1000
0001
0100
,  // measure 51
2001
0000
0000
0000
0000
0000
0000
0000
0001
0000
0000
0000
0000
0000
0000
0000
0001
0000
0000
0000
0000
0000
0000
0000
0002
0000
0000
3003
0000
0000
0000
0000
,  // measure 52
1001
0000
0000
0000
;

//---------------dance-single - XLev450X----------------
#NOTEDATA:;
#CHARTNAME:XLev450X;
#STEPSTYPE:dance-single;
#DESCRIPTION:XLev450X;
#CHARTSTYLE:;
#DIFFICULTY:Hard;
#METER:8;
#RADARVALUES:0.459313,0.476884,0.075525,0.107892,0.037762,298.000000,291.000000,7.000000,10.000000,0.000000,0.000000,0.000000,0.000000,0.000000,0.459313,0.476884,0.075525,0.107892,0.037762,298.000000,291.000000,7.000000,10.000000,0.000000,0.000000,0.000000,0.000000,0.000000;
#CREDIT:XLev450X;
#NOTES:
// measure 0
0000
0000
0000
0000
,  // measure 1
0000
0000
0000
0000
,  // measure 2
0000
0000
0000
0000
,  // measure 3
0000
0000
0000
0000
,  // measure 4
0001
0000
1000
0000
0010
0100
0010
0000
,  // measure 5
0001
0000
0010
0000
1000
1000
0010
0100
,  // measure 6
0001
0000
1000
0000
0001
1000
0001
0000
,  // measure 7
0010
0000
0001
0000
0001
0100
1000
0010
,  // measure 8
1000
0000
0100
0000
0001
0100
0001
0000
,  // measure 9
0010
0000
1000
0000
0001
0010
0100
1000
,  // measure 10
0010
0000
0100
0000
0001
1000
0001
0000
,  // measure 11
1002
0000
0000
0000
1000
0000
0000
1000
0000
0000
1000
0000
1000
0000
1003
0000
,  // measure 12
0001
1000
0010
0100
0000
0010
0001
0010
,  // measure 13
0000
0100
0010
0100
0000
0001
1000
0001
,  // measure 14
0100
0010
1000
0010
0000
0010
0100
0010
,  // measure 15
0000
0001
0010
0001
1000
0001
0100
0000
,  // measure 16
0001
0000
1000
0010
1000
0000
0010
0100
,  // measure 17
0010
0000
0001
0010
0001
0100
1000
0001
,  // measure 18
1000
0000
0001
0000
1000
0010
1000
0000
,  // measure 19
0010
0000
0100
0000
0001
1000
0010
1000
,  // measure 20
0010
0000
0001
0000
0010
0001
0010
0000
,  // measure 21
0100
1000
0100
0000
0001
1000
0001
0000
,  // measure 22
0010
0000
1000
0100
0010
0000
0001
0000
,  // measure 23
0010
0100
1000
0001
1000
0000
0001
0000
,  // measure 24
1000
0100
0001
0000
0010
0100
0010
0000
,  // measure 25
1000
0010
1000
0000
0001
0010
0001
0000
,  // measure 26
0100
1000
0001
1000
0010
0100
0001
0010
,  // measure 27
2001
0000
0001
3001
,  // measure 28
0001
0000
0000
1000
0000
0000
0100
0000
0010
0000
0000
0001
0000
0000
1000
0000
,  // measure 29
0001
0000
0000
0100
0000
0000
0010
0000
1000
0000
0000
0010
0000
0000
0100
0000
,  // measure 30
0001
0000
0000
0000
1000
0000
0100
0000
0001
0100
1000
0000
0001
0000
1000
0000
,  // measure 31
0010
0100
0010
1000
0001
0010
0001
0000
,  // measure 32
1000
0001
0100
1000
0001
0000
1001
0000
,  // measure 33
0010
1000
0100
0010
0001
0000
1001
0000
,  // measure 34
0010
1000
0010
0000
0001
0010
0001
0000
,  // measure 35
0100
1000
0001
1000
0001
1000
0010
0100
,  // measure 36
0002
0000
0200
0303
1000
0010
1000
0000
,  // measure 37
0100
0001
0010
1000
0001
0100
0010
0000
,  // measure 38
2000
0000
0002
3003
0010
1000
0100
0000
,  // measure 39
0010
0001
0010
0100
1000
0001
1000
0000
,  // measure 40
0020
0000
2000
3030
0100
0001
0100
0000
,  // measure 41
0001
1000
0001
0100
0010
1000
0010
0000
,  // measure 42
0001
1000
0001
0100
0010
0100
0001
0010
,  // measure 43
2001
0000
0000
0000
0001
0000
0000
0001
0000
0000
0001
0000
0001
0000
3001
0000
,  // measure 44
0001
1000
0010
0100
1000
0010
1000
0000
,  // measure 45
0001
0010
0001
0000
0010
1000
0010
0000
,  // measure 46
0100
0000
0001
0000
1000
0001
1000
0000
,  // measure 47
0010
0010
1000
0100
0001
0010
0100
0000
,  // measure 48
0001
0000
1000
0000
0010
1000
0010
0000
,  // measure 49
0010
0100
0001
0000
0001
1000
0010
0000
,  // measure 50
0001
1000
0100
0010
0001
0010
0100
0010
,  // measure 51
2001
0001
0001
3001
,  // measure 52
1001
0000
0000
0000
;
