#TITLE:AM-3P (Sanxion7 Remix);
#SUBTITLE:;
#ARTIST:KTz;
#TITLETRANSLIT:;
#SUBTITLETRANSLIT:;
#ARTISTTRANSLIT:;
#GENRE:;
#CREDIT:;
#BANNER:AM-3P (Sanxion7 Remix).png;
#BACKGROUND:AM-3P (Sanxion7 Remix)-bg.png;
#LYRICSPATH:;
#CDTITLE:;
#MUSIC:AM-3P (Sanxion7 Remix).ogg;
#OFFSET:-0.248000;
#SAMPLESTART:44.688000;
#SAMPLELENGTH:15.000000;
#SELECTABLE:YES;
#DISPLAYBPM:129.000000;
#BPMS:0.000000=129.612000
;
#STOPS:
;
#BGCHANGES:;
#KEYSOUNDS:;
#ATTACKS:;

//---------------dance-single - XLev450X----------------
#NOTES:
     dance-single:
     XLev450X:
     Beginner:
     2:
     0.115789,0.154197,0.059307,0.000000,0.000000,82.000000,76.000000,6.000000,0.000000,0.000000,0.000000,0.115789,0.154197,0.059307,0.000000,0.000000,82.000000,76.000000,6.000000,0.000000,0.000000,0.000000:
0000
0000
0000
0000
,
0000
0000
0000
0000
,
0000
0000
0000
0000
,
0000
0000
0000
0000
,
0001
0000
0001
0000
,
1000
0000
0000
0000
,
0010
0000
0010
0000
,
0100
0000
0000
0000
,
0010
0000
0001
0000
,
0010
0000
0000
0000
,
1000
0000
0100
0000
,
1000
0000
0000
0000
,
0001
0000
1000
0000
,
0001
0000
0000
0000
,
0100
0000
0010
0000
,
0100
0000
0000
0000
,
0010
0000
0010
0000
,
0001
0000
0001
0000
,
0100
0000
0100
0000
,
1000
0000
1000
0000
,
0010
0000
0100
0000
,
0010
0000
1000
0000
,
0001
0000
1000
0000
,
0001
0000
0000
0000
,
0001
0000
0001
0000
,
0100
0000
0100
0000
,
1000
0000
1000
0000
,
0010
0000
0000
0000
,
0001
0000
0100
0000
,
0001
0000
1000
0000
,
0010
0000
1000
0000
,
1001
0000
0000
0000
,
1001
0000
0000
0000
,
0010
0000
0100
0000
,
0010
0000
0000
0000
,
0010
0000
0001
0000
,
0010
0000
0000
0000
,
0100
0000
1000
0000
,
0100
0000
0000
0000
,
0010
0000
1000
0000
,
0010
0000
0000
0000
,
0001
0000
0001
0000
,
0001
0000
0000
0000
,
0100
0000
0100
0000
,
0100
0000
0000
0000
,
1000
0000
1000
0000
,
1000
0000
0000
0000
,
0010
0000
0010
0000
,
0010
0000
0000
0000
,
1010
0000
0000
0000
,
0110
0000
0000
0000
,
0011
0000
0000
0000
,
1001
0000
0000
0000
;

//---------------dance-single - XLev450X----------------
#NOTES:
     dance-single:
     XLev450X:
     Easy:
     4:
     0.251347,0.314326,0.069191,0.079076,0.000000,178.000000,171.000000,7.000000,8.000000,0.000000,0.000000,0.251347,0.314326,0.069191,0.079076,0.000000,178.000000,171.000000,7.000000,8.000000,0.000000,0.000000:
0000
0000
0000
0000
,
0000
0000
0000
0000
,
0000
0000
0000
0000
,
0000
0000
0000
0000
,
0001
1000
0010
1000
,
0001
0000
0100
0000
0001
0100
0001
0000
,
1000
0000
0001
0000
1000
0001
1000
0000
,
2002
0000
0000
3003
,
0001
1000
0001
0010
,
0100
0001
1000
0001
,
1000
0100
0010
0001
,
0100
0010
1000
0000
,
0010
1000
0100
0001
,
0010
0100
1000
0010
,
0100
0000
0001
0000
1000
0001
1000
0000
,
0002
0000
0000
0000
0000
0000
2000
3003
,
1000
0010
1000
0000
,
0001
0010
0001
0000
,
0010
0100
0010
0000
,
1000
0001
1000
0000
,
0001
0001
0100
0000
,
0010
0010
1000
0000
,
0100
0010
0100
0000
,
1000
0010
1000
0000
,
0001
0001
1000
0100
,
0001
0010
0100
0000
,
1000
0001
1000
0010
,
0100
0000
0001
0000
1000
0001
1000
0000
,
0010
1000
0100
0001
,
0010
0000
0100
0000
0010
0100
0010
0000
,
0001
1000
0001
1000
,
0001
1000
0001
0000
0010
1000
0010
0000
,
0001
0000
0000
1000
0000
0000
0001
0000
,
0100
0010
1000
0001
,
0100
0010
1000
0001
,
1000
0100
0010
0001
,
0100
0010
1001
0000
,
0001
1000
1001
0000
,
1000
0001
1010
0000
,
0010
0100
0011
0000
,
0001
0100
0101
0000
,
0001
1000
0001
0000
,
0010
1000
0010
0000
,
0100
0001
1000
0000
,
0010
0100
1000
0000
,
0010
0010
1000
0100
,
0001
0100
0010
0000
,
1000
0001
0010
1000
,
0002
0000
1000
0000
1000
0000
2000
3003
,
0001
0000
0000
1000
0000
0000
0010
0000
,
0100
0000
0000
0001
0000
0000
0100
0000
,
0010
0000
0000
1000
0000
0000
0001
0000
,
2002
0000
0000
0000
,
3003
0000
0000
0000
;

//---------------dance-single - XLev450X----------------
#NOTES:
     dance-single:
     XLev450X:
     Medium:
     6:
     0.329011,0.445295,0.019769,0.059307,0.019769,233.000000,231.000000,2.000000,6.000000,0.000000,0.000000,0.329011,0.445295,0.019769,0.059307,0.019769,233.000000,231.000000,2.000000,6.000000,0.000000,0.000000:
0000
0000
0000
0000
,
0000
0000
0000
0000
,
0000
0000
0000
0000
,
0000
0000
0000
0000
,
0001
1000
0001
0100
,
0010
1000
0010
0000
0010
0100
0010
0000
,
0001
1000
0001
1000
,
2002
0000
0000
3003
,
0001
0001
1000
0100
,
0010
1000
0001
0100
,
0010
1000
0100
0001
,
0100
0010
1000
0000
,
0001
1000
0100
0001
,
0010
0100
1000
0001
,
0001
0010
0001
0000
0010
1000
0010
0000
,
0100
0001
1000
0000
,
0001
0001
1000
0100
,
0010
0000
1000
0000
0010
1000
0010
0000
,
0001
0100
1000
0001
,
0001
0100
0001
0000
0010
1000
0010
0000
,
0100
0001
1000
0001
,
0010
0000
1000
0000
0001
1000
0001
0000
,
0010
0000
0100
0000
0001
0100
0001
0000
,
1000
0000
0001
0000
0010
1000
0010
0000
,
0001
0000
1000
0000
0001
1000
0001
0000
,
0010
1000
0010
0000
0010
0100
0010
0000
,
0001
1000
0001
0100
,
0001
0010
0001
0000
0010
1000
0010
0000
,
0100
0001
1000
0100
,
0010
1000
0010
0000
0010
0001
0010
0000
,
0100
1000
0001
0100
,
0001
0000
1000
0000
0001
0000
1000
0001
,
1000
0000
0001
1000
0001
0000
0100
0000
0001
0010
0001
0000
1000
0000
0001
0000
,
1000
0000
0010
0000
0001
0010
0001
0000
,
0100
1000
0010
0100
,
0001
0100
0001
0000
0001
1000
0001
0000
,
0010
1000
1001
0000
,
0010
1000
0100
0010
,
0001
0010
0001
0000
0010
0100
1000
0000
,
0010
0100
0010
1000
,
0001
1000
0001
0000
0010
0100
0010
0000
,
0001
0100
1000
0010
,
1000
0000
0100
0000
0001
0010
0001
0000
,
0100
1000
0001
1000
,
0001
0000
1000
0000
0001
1000
0001
0000
,
0010
1000
0100
0010
,
0001
0010
1000
0000
,
0001
0000
0100
0000
0001
1000
0001
0000
,
2000
0000
0001
0000
0001
0000
0002
3003
,
0001
0010
0000
1000
0100
0000
0010
0100
,
0001
1000
0000
0001
0100
0000
0010
1000
,
0001
0000
1000
0001
1000
0000
0010
0000
1000
0100
1000
0000
0001
0000
1000
0000
,
0002
2000
0000
0000
0000
0000
0000
0000
,
3003
0000
0000
0000
;

//---------------dance-single - XLev450X----------------
#NOTES:
     dance-single:
     XLev450X:
     Hard:
     8:
     0.522464,0.602457,0.009884,0.029653,0.168036,370.000000,369.000000,1.000000,3.000000,0.000000,0.000000,0.522464,0.602457,0.009884,0.029653,0.168036,370.000000,369.000000,1.000000,3.000000,0.000000,0.000000:
// measure 0
0000
0000
0000
0000
,  // measure 1
0000
0000
0000
0000
,  // measure 2
0000
0000
0000
0000
,  // measure 3
0000
0000
0000
0000
,  // measure 4
0001
0000
1000
0000
0001
1000
0001
0000
,  // measure 5
0010
1000
0010
0000
0010
0100
0010
0000
,  // measure 6
0001
0000
0010
0000
0001
0010
0001
0000
,  // measure 7
0001
1000
0001
0000
1000
0000
0100
0010
0100
0000
1000
0000
0001
0100
1000
0100
,  // measure 8
0001
0000
1000
0000
0001
1000
0001
0010
,  // measure 9
1000
0100
0010
0001
0010
0100
1000
0001
,  // measure 10
1000
0000
0010
1000
0010
0000
0010
0100
,  // measure 11
0010
0000
0001
0010
0001
1000
0001
1000
,  // measure 12
0001
0000
0001
1000
0001
0000
0010
1000
,  // measure 13
0010
0000
0010
0100
0010
0000
0001
0010
,  // measure 14
0001
0100
1000
0001
1000
0001
1000
0001
,  // measure 15
2001
0000
0000
0000
0001
0000
0000
0000
0001
0000
0000
0001
0001
0000
3001
0000
,  // measure 16
0001
0010
0001
0000
0001
0000
1000
0000
0001
0000
0100
0000
0010
0000
0000
0000
,  // measure 17
0010
1000
0100
0010
0001
0010
0100
0000
,  // measure 18
0010
1000
0010
0000
0100
0000
0010
0000
0001
0000
1000
0000
0001
0000
0000
0000
,  // measure 19
0001
1000
0100
0001
0010
0100
1000
0000
,  // measure 20
0001
1000
0001
0000
0100
0000
1000
0000
0010
0000
1000
0000
0010
0000
0000
0000
,  // measure 21
0010
0100
0010
0000
0001
0010
0001
0000
,  // measure 22
1000
0001
1000
0000
0001
0000
1000
0000
0100
0000
0010
0000
0001
0000
0010
0000
,  // measure 23
1000
0000
0001
0000
1000
0100
0010
0001
,  // measure 24
1000
0000
0001
1000
0001
1000
0010
1000
,  // measure 25
0010
1000
0010
0000
0100
0000
0010
0000
0001
0010
0001
0000
0100
0000
1000
0000
,  // measure 26
0001
1000
0001
0000
0010
0000
1000
0000
0100
0000
0010
0000
0001
0000
0010
0000
,  // measure 27
0010
0100
0010
0000
1000
0000
0010
0000
1000
0010
1000
0000
0010
0000
0001
0000
,  // measure 28
0010
0100
1000
0000
0001
0100
0001
0000
,  // measure 29
0010
1000
0100
0010
0001
0010
0100
1000
,  // measure 30
0001
0010
0001
0000
1000
0000
0010
0000
0100
0010
0100
0000
0010
0000
1000
0000
,  // measure 31
0001
0000
1000
0000
0100
0000
0001
0000
1000
0000
0010
0100
1000
0000
0001
0000
,  // measure 32
1000
0100
1000
0000
0001
0000
0100
0010
0100
0000
1000
0000
0001
0010
0001
0000
,  // measure 33
0001
1000
0001
0000
0010
1000
0100
0000
,  // measure 34
0010
0001
0010
0100
1000
0001
1000
0000
,  // measure 35
0010
1000
0010
0000
0010
0100
0010
0000
,  // measure 36
0001
0010
0001
0100
1000
0001
1000
0000
,  // measure 37
0001
0001
1000
0000
0010
0010
0100
0000
,  // measure 38
0010
1000
0010
0100
0001
0010
1000
0000
,  // measure 39
0001
0000
1000
0000
0100
0001
0100
0000
,  // measure 40
0001
0000
1000
0000
0010
1000
0010
0100
,  // measure 41
0001
0010
0001
0000
0100
0000
1000
0000
0001
0000
0100
0000
0001
0000
0000
0000
,  // measure 42
0010
1000
0100
0010
0001
0010
1000
0000
,  // measure 43
0001
0000
1000
0000
0010
0000
0100
0000
0010
0000
1000
0010
1000
0000
0010
0000
,  // measure 44
0001
1000
0001
0000
0001
0100
1000
0001
,  // measure 45
1000
0001
1000
0000
0001
0000
0100
0000
0010
0000
1000
0000
0010
0000
0000
0000
,  // measure 46
0010
0000
0100
0000
0001
0000
0010
0000
0001
0000
1000
0000
0001
0010
0001
0000
,  // measure 47
1000
0001
1000
0000
0001
0100
0010
1000
,  // measure 48
0010
0000
0001
0000
0010
0000
1000
0000
0001
0000
1000
0001
1000
0000
0001
0000
,  // measure 49
0001
1000
0001
0000
0100
0000
0001
0100
1000
0000
0010
0000
0001
0010
0001
0000
,  // measure 50
1000
0001
0010
0000
0100
0000
0010
1000
0010
0000
0100
0000
0001
0100
0001
0000
,  // measure 51
1000
0001
1000
0000
0010
0000
1000
0010
1000
0000
0010
0000
0010
0100
0010
0000
,  // measure 52
0002
2000
0000
0000
0000
0000
0000
0000
,  // measure 53
3003
0000
0000
0000
;
