#TITLE:The Space Dance;
#ARTIST:Danny Tenaglia;
#BANNER:The Space Dance.png;
#BACKGROUND:The Space Dance-bg.png;
#CDTITLE:./CDTITLES/DanceDanceRevolution HOTTEST PARTY 3.png;
#MUSIC:The Space Dance.ogg;
#SAMPLESTART:1.883;
#SAMPLELENGTH:15;
#BPMS:0=126;

//---------------dance-single - ----------------
#NOTES:
     dance-single:
     :
     Beginner:
     1:
     :
0000
0000
0000
0000
,
0000
0000
0000
0000
,
0000
0000
0000
0000
,
0000
0000
0000
0000
,
0000
0000
0000
0000
,
1000
0000
0000
0000
,
0001
0000
0000
0000
,
0010
0000
0000
0000
,
0010
0000
0000
0000
,
1000
0000
1000
0000
,
0001
0000
0001
0000
,
0010
0000
0000
0000
,
0100
0000
0000
0000
,
1000
0000
1000
0000
,
0001
0000
0001
0000
,
0010
0000
0000
0000
,
0100
0000
0000
0000
,
1000
0000
0001
0000
,
1000
0000
1000
0000
,
0001
0000
1000
0000
,
0001
0000
0001
0000
,
0000
0000
0000
0000
,
0010
0000
0000
0000
,
0010
0000
0000
0000
,
0010
0000
0000
0000
,
0100
0000
0000
0000
,
1000
0000
1000
0000
,
0001
0000
0001
0000
,
1000
0000
1000
0000
,
0001
0000
0001
0000
,
1000
0000
1000
0000
,
0001
0000
0001
0000
,
1000
0000
1000
0000
,
1001
0000
0000
0000
,
1001
0000
0000
0000
,
0000
0000
0000
0000
,
0100
0000
0000
0000
,
0100
0000
0000
0000
,
1001
0000
0000
0000
,
0000
0000
0000
0000
,
0100
0000
0000
0000
,
0100
0000
0000
0000
,
1000
0000
1000
0000
,
0001
0000
0001
0000
,
1000
0000
1000
0000
,
0001
0000
0001
0000
,
1000
1000
1000
0000
,
0001
0001
0001
0000
,
1000
1000
1000
0000
,
0010
0000
0000
0000
,
1001
0000
0000
0000
;

//---------------dance-single - ----------------
#NOTES:
     dance-single:
     :
     Easy:
     3:
     :
0000
0000
0000
0000
,
0000
0000
0000
0000
,
0000
0000
0000
0000
,
0000
0000
0000
0000
,
0000
0000
0000
0000
,
1000
1000
0000
0000
,
0001
0001
0000
0000
,
0010
0000
0010
0000
,
0010
0000
0000
0000
,
0001
0010
0001
0000
,
1000
0010
1000
0000
,
0100
0000
0100
0000
,
0100
0000
0000
0000
,
0001
0010
0001
0000
,
1000
0010
1000
0000
,
0100
0000
0100
0000
,
0200
0000
0300
0000
,
1000
0001
0001
0000
,
1000
0100
1000
0000
,
0001
1000
1000
0000
,
0001
0100
0001
0000
,
0000
0000
0000
0000
,
0001
0000
0001
0000
,
1000
0000
1000
0000
,
0010
0000
0010
0000
,
0020
0000
0030
0000
,
1000
0001
0001
0000
,
1000
0100
1000
0000
,
0001
1000
1000
0000
,
0001
0100
0001
0000
,
1000
0001
0001
0000
,
1000
0100
1000
0000
,
0001
1000
1000
0000
,
0002
0000
0003
0000
,
0001
0000
0100
0000
,
1000
0000
0100
0000
,
0001
0000
1000
0000
,
0001
0000
0000
0000
,
1000
0000
0100
0000
,
0001
0000
0100
0000
,
1000
0000
0001
0000
,
0100
0000
0000
0000
,
1000
0001
0001
0000
,
1000
0100
1000
0000
,
0001
1000
1000
0000
,
0001
0100
0001
0000
,
1000
0001
0001
1000
,
1000
0100
1000
0000
,
0001
1000
1000
0001
,
0001
0100
0001
0000
,
1001
0000
0000
0000
;

//---------------dance-single - ----------------
#NOTES:
     dance-single:
     :
     Medium:
     6:
     :
0000
0000
0000
0000
,
0000
0000
0000
0000
,
0000
0000
0000
0000
,
0000
0000
0000
0000
,
0000
0000
0000
0000
,
1000
0000
1000
0000
0010
0100
0010
0000
,
0100
0000
0100
0000
0001
0010
0001
0000
,
0011
0000
1100
0000
,
1001
0000
0000
0000
,
0001
0100
0001
0000
1000
0100
1000
0000
,
0010
0000
0010
0000
1000
0001
0100
0000
,
0101
0000
1100
0000
,
0110
0000
0000
0000
,
1000
0100
1000
0000
0001
0100
0001
0000
,
0010
0000
0010
0000
0001
1000
0100
0000
,
1100
0000
0101
0000
,
2000
3002
0023
0130
,
1000
0000
0010
0000
0100
0001
0001
0000
,
0100
0010
0010
0000
1000
0100
0100
0000
,
0001
0000
0010
0000
0100
1000
0001
0000
,
0100
0010
0010
0000
0001
0100
0100
0000
,
0001
0000
1000
0000
,
0100
0000
0100
0000
,
0100
0000
0100
0100
,
0010
0000
0010
0000
,
0002
0000
2000
3003
,
1000
0000
0010
0000
0100
0001
0001
0000
,
0100
0010
0010
0000
1000
0100
0100
0000
,
0001
0000
0010
0000
0100
1000
1000
0000
,
0100
0010
0010
0000
0001
0100
0100
0000
,
1000
0000
0100
0000
0010
0001
0001
0000
,
0010
0100
0100
0000
1000
0010
0010
0000
,
0001
0000
0100
0000
0010
1000
1000
0000
,
0020
0230
0320
0130
,
0001
0000
0000
0000
1000
0100
0010
0000
,
0001
0000
0000
0000
0100
0010
1000
0000
,
0001
0000
1000
0000
,
0001
0000
0000
0000
,
1000
0000
0001
0000
0001
0100
0010
0000
,
1000
0000
1000
0000
0100
0010
0001
0000
,
1000
0000
0010
0000
,
0100
0000
0000
0000
,
1000
0000
0010
0000
0100
0001
0001
0000
,
0100
0010
0010
0000
1000
0100
0100
0000
,
0001
0000
0010
0000
0100
1000
1000
0000
,
0100
0010
0010
0000
0001
0100
0100
0000
,
1000
0000
0010
0000
0100
0001
0101
0000
,
0100
0010
0010
0000
1000
0100
1100
0000
,
0001
0001
0010
0000
0100
1000
1000
0000
,
0020
2030
3002
0103
,
1001
0000
0000
0000
;

//---------------dance-single - ----------------
#NOTES:
     dance-single:
     :
     Hard:
     8:
     :
0000
0000
0000
0000
,
0000
0000
0000
0000
,
0000
0000
0000
0000
,
0000
0000
0000
0000
,
0000
0000
0000
0000
,
1000
0100
1000
0000
1000
0010
1000
0000
,
0100
0001
0100
0000
0100
1000
0100
0001
,
0101
0010
1100
0001
,
1010
0000
0100
0000
0001
0001
0001
0000
,
1000
0001
0100
0001
1000
0100
0010
0100
,
0010
0001
1000
0001
0100
0010
1000
0001
,
0101
1000
1100
0010
,
0011
0100
0100
0000
,
0001
1000
0100
1000
0001
0100
0010
0100
,
0010
1000
0001
1000
0100
0010
0001
1000
,
1100
0001
0101
0010
,
1000
0100
0010
0100
1000
0010
0100
0001
0010
0100
0000
0000
,
1001
0000
0100
0000
0010
0000
0100
0000
1000
0010
0100
0000
0001
0000
0000
0000
,
0100
0000
0001
0000
1000
0100
0010
0000
0001
0000
0100
0000
0010
0000
0000
0000
,
1001
0000
0100
0000
0010
0000
1000
0000
0001
0010
0100
0000
1000
0000
0000
0000
,
0100
0000
1000
0000
0001
0100
0010
0000
1000
0000
0100
0000
0010
0000
0000
0000
,
0001
0000
1000
0000
,
0100
0000
0100
0000
,
0100
0000
0010
0010
,
0001
0000
0001
0000
,
2000
0000
0020
3030
,
1001
0000
0100
0000
0010
0000
0100
0000
1000
0010
0100
0000
0001
0000
0000
0000
,
0100
0000
0001
0000
1000
0100
0010
0000
0001
0000
0100
0000
0010
0000
0000
0000
,
1001
0000
0100
0000
0010
0000
0100
0000
0001
0010
0100
0000
1000
0000
0000
0000
,
0100
0000
1000
0000
0001
0100
0010
0000
1000
0000
0100
0000
0010
0000
0000
0000
,
1001
0000
0010
0000
0100
0000
0010
0000
1000
0100
0010
0000
0001
0000
0000
0000
,
0010
0000
0001
0000
1000
0010
0100
0000
0001
0000
0010
0000
0100
0000
0000
0000
,
1001
0000
0010
0000
0100
0000
0010
0000
0001
0100
0010
0000
1000
0000
0000
0000
,
0100
0001
0010
0001
0010
0100
1000
0010
0100
0001
0000
0000
,
1000
0000
0000
0000
1000
0000
0000
0000
0010
1000
0010
0000
0100
0000
0001
0000
,
0100
0000
0000
0000
0100
0000
0000
0000
0001
0010
0001
0000
0011
0000
0000
0000
,
1100
0000
1001
0000
,
0210
0000
0000
0300
,
0001
0000
0000
0000
0001
0000
1000
0000
0010
0001
0010
0000
0100
0000
1000
0000
,
0100
0000
0001
0000
0100
0000
0000
0000
1000
0010
1000
0000
1010
0000
0000
0000
,
0101
0000
1001
0000
,
0120
0000
0200
0330
,
1001
0000
0100
0000
0010
0000
0100
0000
0001
0010
0100
0000
1000
0000
0000
0000
,
0100
0000
1000
0000
0001
0100
0010
0000
1000
0000
0100
0000
0010
0000
0000
0000
,
1001
0000
0100
0000
0010
0000
0100
0000
1000
0010
0100
0000
0001
0000
0000
0000
,
0100
0000
0001
0000
1000
0100
0010
0000
0001
0000
0100
0000
0010
0000
0000
0000
,
1001
0000
0100
0000
0010
0000
0100
0000
1000
0010
0100
0000
0101
0000
0000
0000
,
0100
0000
0001
0000
1000
0100
0010
0000
0001
0000
0100
0000
0110
0000
0000
0000
,
1001
0000
0100
0000
0010
0000
0100
0000
0001
0010
0100
0000
1001
0000
0000
0000
,
0100
0010
1000
0010
1000
0001
0010
0100
0010
0100
0000
0000
,
1001
0000
0000
0000
;
