#TITLE:South Side;
#ARTIST:Moby;
#BANNER:South Side.png;
#BACKGROUND:South Side-bg.png;
#CDTITLE:./CDTITLES/DanceDanceRevolution HOTTEST PARTY 3.png;
#MUSIC:South Side.ogg;
#SAMPLESTART:22.213;
#SAMPLELENGTH:15;
#DISPLAYBPM:97;
#BPMS:0=97.125;

//---------------dance-single - ----------------
#NOTES:
     dance-single:
     :
     Beginner:
     2:
     :
0000
0000
0000
0000
,
0000
0000
0000
0000
,
0000
0000
0000
0000
,
0000
0000
0000
0000
,
0000
0000
0000
0000
,
1000
0000
1000
0000
,
1000
0000
0000
0000
,
0001
0000
0001
0000
,
0001
0000
0000
0000
,
1000
0000
0001
0000
,
1000
0000
0001
0000
,
0001
0000
1000
0000
,
0001
0000
1000
0000
,
0010
0000
0010
0000
,
0100
0000
0100
0000
,
0010
0000
0010
0000
,
0100
0000
0000
0000
,
1000
0000
0000
0000
,
0001
0000
0000
0000
,
0100
0000
0000
0000
,
0000
0000
0000
0000
,
0001
0001
0000
0000
,
1000
1000
0000
0000
,
0001
0001
0000
0000
,
0010
0010
0010
0000
,
1000
1000
1000
0000
,
0010
0010
0010
0000
,
0001
0001
0001
0000
,
0100
0000
0000
0000
,
0010
0000
1000
0000
,
0001
0000
0010
0000
,
1000
0000
0100
0000
,
0001
0000
0100
0000
,
0000
0000
0000
0000
,
0000
0000
0000
0000
,
0010
0000
0010
0000
,
1000
1000
1000
0000
,
0010
0000
0010
0000
,
0001
0001
0001
0000
,
0010
0010
0010
0000
,
1000
0000
0001
0000
,
0010
0010
0010
0000
,
1000
1000
0001
0001
,
1001
0000
0000
0000
;

//---------------dance-single - ----------------
#NOTES:
     dance-single:
     :
     Easy:
     3:
     :
0000
0000
0000
0000
,
0000
0000
0000
0000
,
0000
0000
0000
0000
,
0000
0000
0000
0000
,
0000
0000
0000
0000
,
1000
0001
1000
0001
,
2000
0000
3000
0000
,
0001
1000
0001
1000
,
0002
0000
0003
0000
,
2000
3000
0020
0030
,
0200
0300
0001
0000
,
0002
0003
0020
0030
,
0200
0300
1000
0000
,
0020
0030
2000
3000
,
0002
0003
0100
0000
,
0020
0030
0002
0003
,
1000
0001
1000
0000
,
0020
0000
0000
0030
,
0200
0000
0000
0300
,
0002
0003
2000
3000
,
0100
0100
0100
0000
,
0001
0010
0000
0000
,
1000
0100
0000
0000
,
0001
1000
0000
0000
,
0100
0010
0010
0000
,
1000
1000
0010
0100
,
0001
0001
0200
0300
,
0001
0010
0010
0100
,
1000
1000
0002
0003
,
0001
1000
0001
1000
,
0010
0100
0010
0000
,
1000
0010
0100
0001
,
0010
0100
1000
0000
,
0010
0010
0010
0010
,
0100
0100
0100
0000
,
2000
3000
0020
0030
,
0200
0300
0001
0000
,
0002
0003
0020
0030
,
0200
0300
1000
0000
,
0020
0030
2000
3000
,
0002
0003
0100
0000
,
0020
0030
0002
0003
,
0100
0010
1000
0001
,
1001
0000
0000
0000
;

//---------------dance-single - ----------------
#NOTES:
     dance-single:
     :
     Medium:
     6:
     :
0000
0000
0000
0000
,
0000
0000
0000
0000
,
0000
0000
0000
0000
,
0000
0000
0000
0000
,
0000
0000
0000
0000
,
0010
0000
2000
0000
3100
0010
0100
0000
,
1000
0000
0020
0000
0130
0100
0100
0000
,
0010
0000
0002
0000
0103
0010
0100
0000
,
0001
0000
0020
0000
0130
0010
0110
0000
,
1000
0001
0100
0000
0001
0000
1000
1000
,
0100
0000
0001
0001
0100
0000
0010
0000
,
1000
0001
0010
0000
0001
0000
1000
0010
,
0100
0000
0001
1000
0100
0000
0010
0000
,
0000
0001
1000
0001
0010
0000
1000
0001
,
0100
0000
0001
0100
0100
0000
0010
0000
,
0000
1000
0001
0100
0100
0000
0001
1000
,
0100
0010
0100
0000
0010
0000
0110
0000
,
2000
0000
3010
0200
,
0010
0010
0001
0301
,
0002
0100
0203
0000
,
0310
0000
0100
0000
1000
1000
1000
0000
,
2010
0000
0010
3000
,
0201
0000
0001
0300
,
1020
0000
1000
0030
,
0010
0000
0100
0000
0001
0001
0001
0000
,
1000
0001
1000
0010
0200
0000
0300
0000
,
0010
1000
0001
0010
0200
0000
0300
0000
,
0001
0100
0010
1000
0001
0010
0100
1000
,
0010
0000
0200
0000
0010
0010
0310
0000
,
1000
0100
1000
0100
1000
0010
1000
0010
,
0100
0010
0100
0010
0100
0001
0100
0001
,
1000
0100
1000
0100
0010
0001
0010
0001
,
0100
0001
0100
0001
0100
0010
0100
0000
,
0010
0000
0000
0000
1000
0000
0010
0010
,
0100
0000
0001
0010
0000
0100
0110
0000
,
1000
0001
0100
0000
0001
0000
1000
1000
,
0100
0000
0001
0001
0100
0000
0010
0000
,
1000
0001
0010
0000
0001
0000
1000
0010
,
0100
0000
0001
1000
0100
0000
0010
0000
,
0000
0001
1000
0001
0010
0000
1000
0001
,
0100
0000
0001
0100
0100
0000
0010
0000
,
0000
1000
0001
0100
0100
0000
0001
1000
,
0100
0010
0100
0000
0100
0000
0100
0000
,
1001
0000
0000
0000
;

//---------------dance-single - ----------------
#NOTES:
     dance-single:
     :
     Hard:
     7:
     :
0000
0000
0000
0000
,
0000
0000
0000
0000
,
0000
0000
0000
0000
,
0000
0000
0000
0000
,
0000
0000
0000
0000
,
0010
0100
0001
0020
0000
0031
0100
0010
,
0100
0000
0010
0000
0100
0001
0100
0001
,
0010
0100
1000
0020
0000
1030
0100
0010
,
0100
0000
0010
0000
0100
0010
0110
0000
,
1000
0001
0100
0010
1000
0001
0100
0100
,
1000
0001
0010
0010
0100
1000
0010
0000
,
0001
1000
0010
0010
0001
1000
0100
0100
,
0001
1000
0010
0100
0100
0001
0010
0000
,
0000
0100
1000
1000
0001
0100
0100
0010
,
1000
0001
0010
0001
0100
1000
0010
0000
,
0000
0100
0001
0010
1000
0001
0100
0001
,
1000
0001
1000
0010
0100
0000
0110
0000
,
0002
0100
0013
0200
,
1000
1000
1000
0000
0010
0010
0310
0000
,
0002
0000
1000
0000
0023
0100
0100
0000
,
0031
0001
0200
0000
0310
1000
0100
0000
,
1020
0100
1000
0130
,
0201
0001
1000
1300
,
0021
1000
0100
0031
,
1000
1000
0200
0000
0310
0001
0100
0000
,
0001
0000
0010
0000
0001
0000
0100
0000
0020
0000
0000
1000
0000
1000
0000
1000
,
0130
0000
0010
0000
0100
0000
0010
0000
0002
0000
0000
0100
0000
0100
0000
0100
,
0013
1000
0010
0100
0001
0010
0001
0010
,
0001
0000
0200
0000
0010
0010
0310
0000
,
1000
0100
0001
0100
1000
0100
0010
0100
,
1000
0010
0001
0010
0100
0010
0100
0000
,
1000
0010
1000
0010
0100
0001
0100
0001
,
0010
0001
0010
0001
1000
0100
1100
0000
,
0010
0000
0000
0000
0000
0000
0000
0000
1000
0010
0000
0010
0100
0000
0100
0000
,
0001
0010
0000
0001
0100
0000
0010
1000
0000
1000
0100
0000
0110
0000
0000
0000
,
1000
0001
0100
0010
1000
0001
0100
0100
,
1000
0001
0010
0010
0100
1000
0010
0000
,
0001
1000
0010
0010
0001
1000
0100
0100
,
0001
1000
0010
0100
0100
0001
0010
0000
,
0000
0100
1000
1000
0001
0100
0100
0010
,
1000
0001
0010
0001
0100
1000
0010
0000
,
0000
0100
0001
0010
1000
0001
0100
0001
,
1000
0001
1000
0010
0100
0000
0100
0000
,
1001
0000
0000
0000
;
