#TITLE:Praise You;
#ARTIST:Fatboy Slim;
#BANNER:Praise You.png;
#BACKGROUND:Praise You-bg.png;
#CDTITLE:./CDTITLES/DanceDanceRevolution HOTTEST PARTY 3.png;
#MUSIC:Praise You.ogg;
#SAMPLESTART:36.071;
#SAMPLELENGTH:15;
#DISPLAYBPM:110;
#BPMS:0=109.7;

//---------------dance-single - ----------------
#NOTES:
     dance-single:
     :
     Beginner:
     1:
     :
0000
0000
0000
0000
,
0000
0000
0000
0000
,
0000
0000
0000
0000
,
0000
0000
0000
0000
,
0000
0000
0000
0000
,
0001
0000
0000
0000
,
1000
0000
0000
0000
,
0001
0000
0000
0000
,
0000
0000
0000
0000
,
1000
0000
1000
0000
,
1000
0000
0000
0000
,
0001
0000
0001
0000
,
0001
0000
0000
0000
,
0010
0000
0000
0000
,
0010
0000
0000
0000
,
1000
1000
1000
0000
,
0000
0000
0000
0000
,
1000
0000
0001
0000
,
1000
0000
0000
0000
,
1000
0000
0001
0000
,
1000
0000
0000
0000
,
1000
0000
0001
0000
,
1000
0000
0000
0000
,
0010
0000
0010
0000
,
0010
0000
0000
0000
,
0100
0000
0000
0000
,
0000
0000
0000
0000
,
0100
0000
0000
0000
,
0000
0000
0000
0000
,
0010
0000
0000
0000
,
0010
0000
0000
0000
,
0010
0000
0000
0000
,
0001
0001
0001
0000
,
0000
0000
0010
0000
,
0000
0000
0001
0000
,
0000
0000
0001
0000
,
0000
0000
1001
0000
,
0000
0000
0010
0000
,
0000
0000
1000
0000
,
0000
0000
1000
0000
,
0000
0000
0100
0000
,
0000
0000
0010
0000
,
0000
0000
0001
0000
,
0000
0000
0001
0000
,
0000
0000
1001
0000
,
0000
0000
0010
0000
,
0000
0000
1000
0000
,
0000
0000
1000
0000
,
0000
0000
0100
0000
,
0100
0000
0000
0000
;

//---------------dance-single - ----------------
#NOTES:
     dance-single:
     :
     Easy:
     3:
     :
0000
0000
0000
0000
,
0000
0000
0000
0000
,
0000
0000
0000
0000
,
0000
0000
0000
0000
,
0000
0000
0000
0000
,
0001
0001
1000
1000
,
0000
0000
0000
0000
,
1000
1000
0001
0001
,
0000
0000
0000
0000
,
2000
3000
0020
0030
,
0200
0300
0002
0003
,
1000
1000
1000
0000
,
0020
0000
0030
0000
,
0200
0300
0002
0003
,
0200
0300
0020
0030
,
1000
1000
1000
0000
,
0002
0000
0003
0000
,
1000
0100
0010
0000
,
0002
0000
0003
0000
,
1000
0100
0010
0000
,
0002
0000
0003
0000
,
1000
0100
0010
0000
,
0002
0000
0003
0000
,
0010
0100
0010
0000
,
0110
0000
0000
0000
,
0002
0000
0003
0000
,
2000
0000
3000
0000
,
2000
0000
3000
0000
,
0010
0010
0010
0000
,
0200
0000
0300
0000
,
0020
0000
0030
0000
,
0200
0000
0300
0000
,
0001
1000
1001
0000
,
1000
0000
0010
0000
,
0001
0000
0100
0000
,
1000
0000
0100
0000
,
0001
1000
0001
0000
,
1000
0000
0010
0000
,
0001
0000
0100
0000
,
1000
0000
0100
0000
,
1000
0001
1000
0000
,
1000
0000
0010
0000
,
0001
0000
0100
0000
,
1000
0000
0100
0000
,
0001
1000
0001
0000
,
1000
0000
0010
0000
,
0001
0000
0100
0000
,
1000
0000
0100
0000
,
0001
1000
0001
0000
,
2002
0000
3003
0000
;

//---------------dance-single - ----------------
#NOTES:
     dance-single:
     :
     Medium:
     6:
     :
0000
0000
0000
0000
,
0000
0000
0000
0000
,
0000
0000
0000
0000
,
0000
0000
0000
0000
,
0000
0000
0000
0000
,
0100
0000
1000
0000
0100
1000
0001
0000
,
1000
0010
0100
0001
,
0100
0000
0001
0000
0100
0001
1000
0001
,
0010
0010
0100
0000
,
1000
0100
0010
0000
0001
1000
0002
0000
,
0010
0010
0100
0103
,
0010
1100
0001
1100
,
0020
0100
0100
0130
,
0001
0100
0010
0000
1000
0010
0200
0000
,
0010
0010
0001
0301
,
1000
1100
0001
0101
,
0020
0000
0200
0330
,
0010
0100
0010
0000
0100
0000
0100
0000
,
1000
0001
0001
1000
,
0100
0010
0100
0000
0010
0000
0010
0000
,
0001
1000
1000
0001
,
0010
0100
0010
0000
0100
0000
0100
0000
,
1000
0001
0001
1000
,
0010
0100
0010
0100
0010
0100
0010
0000
,
0100
0100
0020
0030
,
2000
0000
0002
3000
,
0200
0003
0020
0300
,
0200
0030
0020
0300
,
1000
0000
1030
0000
0100
0100
0100
0000
,
0020
0000
0031
0002
,
0200
0003
0310
0020
,
2000
0030
3100
0200
,
0010
0310
0110
0000
,
0001
0000
1000
0000
0001
1000
0001
0000
,
1000
0000
0010
0000
1000
0010
1000
0000
,
0001
0000
0010
0000
0001
0010
0001
0000
,
2000
3002
0203
0300
,
1000
0000
0001
0000
1000
0001
1000
0000
,
0001
0000
0010
0000
0001
0010
0001
0000
,
1000
0000
0010
0000
1000
0010
1000
0000
,
0010
0100
1001
0110
,
0001
0000
1000
0000
0001
1000
0001
0000
,
1000
0000
0010
0000
1000
0010
1000
0000
,
0001
0000
0010
0000
0001
0010
0001
0000
,
2000
3002
0203
0300
,
1000
0000
0001
0000
1000
0001
1000
0000
,
0001
0000
0010
0000
0001
0010
0001
0000
,
1000
0000
0010
0000
1000
0001
1000
0000
,
0100
0010
1001
0110
,
2000
0002
3003
0000
;

//---------------dance-single - ----------------
#NOTES:
     dance-single:
     :
     Hard:
     7:
     :
0000
0000
0000
0000
,
0000
0000
0000
0000
,
0000
0000
0000
0000
,
0000
0000
0000
0000
,
0000
0000
0000
0000
,
0001
0000
0101
0000
1000
0010
0100
1000
,
0100
0000
0010
0000
0100
0010
0110
0000
,
1000
0000
1100
0010
0001
0010
0100
0001
,
0100
1001
0100
0000
,
0001
0100
0010
1000
0001
0100
0010
1000
,
0002
0100
0000
0103
0020
1000
1030
0000
,
0001
0100
1000
0010
0001
0100
1000
0100
,
0020
0000
0100
0000
0100
0100
0130
0000
,
0001
0100
0010
0100
1000
0001
0010
0100
,
2000
0000
0001
3001
0200
0010
0310
0000
,
0100
0001
1000
0100
1000
0010
0100
0001
,
0010
0000
1001
0000
0110
0110
0110
0000
,
1000
0010
1000
0100
1000
0010
1000
0100
,
1000
0010
0100
0110
,
0001
0010
0001
0100
0001
0010
0001
0100
,
0001
0010
0100
0110
,
1000
0010
1000
0100
1000
0010
1000
0100
,
1000
0010
0100
0110
,
0001
1000
0001
0100
0001
1000
0001
0100
,
0001
0000
1000
0000
1001
1001
1001
0000
,
0200
0000
0010
0000
0001
0001
0000
0310
,
2000
0000
0010
0000
0100
0100
3000
0100
,
0002
0000
0010
0000
0100
0100
0003
0100
,
0001
1000
0020
0000
0200
0000
0330
0000
,
2000
0000
3010
0100
0002
0000
0103
0010
,
0200
0000
0301
0010
0200
0000
0310
1000
,
0001
0002
0010
0003
0100
0200
1000
0300
,
0010
0100
0010
0100
1001
0000
1001
0000
,
0100
1000
0010
0100
0001
0010
0001
0100
,
0002
1000
1000
0000
0100
0103
0110
0000
,
2000
0001
0001
0000
0100
3100
0110
0000
,
0001
0000
0000
0000
0101
0000
0000
0000
1000
0010
0100
0000
0010
0000
0000
0000
,
0100
1000
0010
0100
0001
0010
0001
0100
,
0002
1000
1000
0000
0100
0103
0110
0000
,
2000
0001
0001
0000
0100
3100
0110
0000
,
0001
0000
0000
0000
0110
0000
0000
0000
1000
0001
1000
0000
0100
0000
0000
0000
,
0100
0001
0010
0100
1000
0010
1000
0100
,
2000
0001
0001
0000
0100
3100
0110
0000
,
0002
1000
1000
0000
0100
0103
0110
0000
,
1000
0000
0000
0000
1100
0000
0000
0000
0001
0010
0100
0000
0010
0000
0000
0000
,
0100
0001
0010
0100
1000
0010
1000
0100
,
2000
0001
0001
0000
0100
3100
0110
0000
,
0102
1000
1000
0000
0100
0103
0110
0000
,
1000
0000
0000
0000
0110
0000
0000
0000
0001
1000
0001
0000
0100
0000
0000
0000
,
0020
0200
0330
0000
;
