#TITLE:PARADISE;
#ARTIST:Lea Drop feat. McCall Clark;
#BANNER:PARADISE.png;
#BACKGROUND:PARADISE-bg.png;
#CDTITLE:./CDTITLES/DanceDanceRevolution HOTTEST PARTY 3.png;
#MUSIC:PARADISE.ogg;
#SAMPLESTART:42.219;
#SAMPLELENGTH:15;
#BPMS:0=125;

//---------------dance-single - ----------------
#NOTES:
     dance-single:
     :
     Beginner:
     1:
     :
0000
0000
0000
0000
,
0000
0000
0000
0000
,
0000
0000
0000
0000
,
0000
0000
0000
0000
,
0000
0000
0000
0000
,
1000
0000
0000
0000
,
0000
0000
0000
0000
,
0001
0000
0000
0000
,
0000
0000
0000
0000
,
1000
0000
0000
0000
,
0000
0000
0000
0000
,
0001
0000
0000
0000
,
0000
0000
0000
0000
,
1000
0000
0000
0000
,
0001
0000
0000
0000
,
1000
0000
0000
0000
,
0001
0000
0000
0000
,
1000
0000
0000
0000
,
0001
0000
0000
0000
,
1000
0000
0000
0000
,
0001
0000
0000
0000
,
0000
0000
0000
0000
,
1000
0000
1000
0000
,
0001
0000
0000
0000
,
0010
0000
0000
0000
,
0010
0000
0000
0000
,
1000
0000
1000
0000
,
0001
0000
0000
0000
,
0010
0000
0000
0000
,
0010
0000
0000
0000
,
1000
0000
1000
0000
,
1000
0000
0000
0000
,
0001
0000
0001
0000
,
0001
0000
0000
0000
,
0000
0000
0000
0000
,
0100
0000
0000
0000
,
0000
0000
0000
0000
,
0100
0000
0000
0000
,
0010
0000
0000
0000
,
0010
0000
0000
0000
,
0010
0000
0000
0000
,
0000
0000
0000
0000
,
0001
0000
0001
0000
,
1000
0000
0000
0000
,
0010
0000
0000
0000
,
0010
0000
0000
0000
,
0001
0000
0001
0000
,
1000
0000
0000
0000
,
0010
0000
0000
0000
,
0010
0000
0000
0000
,
0001
0000
0001
0000
,
0001
0000
0000
0000
,
1000
0000
1000
0000
,
1000
0000
0000
0000
,
0001
0000
0001
0000
,
0001
0000
0000
0000
,
1000
0000
1000
0000
,
1000
0000
0000
0000
,
1001
0000
0000
0000
;

//---------------dance-single - ----------------
#NOTES:
     dance-single:
     :
     Easy:
     3:
     :
0000
0000
0000
0000
,
0000
0000
0000
0000
,
0000
0000
0000
0000
,
0000
0000
0000
0000
,
0000
0000
0000
0000
,
1000
0000
1000
0000
,
0010
0010
0010
0000
,
0001
0000
1000
0000
,
0100
0000
0000
0000
,
0001
0000
0001
0000
,
0010
0010
0010
0000
,
1000
0000
0001
0000
,
0100
0000
0000
0000
,
0001
0000
1000
1000
,
0001
0000
1000
1000
,
0001
0000
1000
0000
,
0001
0000
0000
0000
,
1000
0000
0001
0001
,
1000
0000
0001
0001
,
1000
0000
0001
0000
,
1000
0000
0000
0000
,
0000
0000
0000
0000
,
0001
0010
0001
0000
,
1000
0000
0100
0000
,
0001
1000
0001
0001
,
0001
0000
0000
0000
,
0001
0010
0001
0000
,
1000
0000
0100
0000
,
0001
1000
0001
0001
,
0001
0000
0000
0000
,
1000
0000
1000
0000
,
0001
0000
0001
0000
,
0010
0000
0010
0000
,
2000
0000
3000
0000
,
0001
0000
1000
0000
,
0001
0000
0000
0000
,
1000
0000
0001
0000
,
1000
0000
0000
0000
,
1000
0000
0001
0000
,
1000
0000
0000
0000
,
0001
0000
1000
0000
,
0010
0000
0000
0000
,
1000
0010
1000
0000
,
0001
0000
0100
0000
,
1000
0001
1000
1000
,
1000
0000
0000
0000
,
1000
0010
1000
0000
,
0001
0000
0100
0000
,
1000
0001
1000
1000
,
1000
0000
0000
0000
,
0001
0000
0001
0000
,
1000
0000
1000
0000
,
0010
0000
0010
0000
,
0002
0000
0003
0000
,
1000
0000
1000
0000
,
0001
0000
0001
0000
,
0010
0000
0010
0000
,
0100
0000
0000
0000
,
1001
0000
0000
0000
;

//---------------dance-single - ----------------
#NOTES:
     dance-single:
     :
     Medium:
     5:
     :
0000
0000
0000
0000
,
0000
0000
0000
0000
,
0000
0000
0000
0000
,
0000
0000
0000
0000
,
0000
0000
0000
0000
,
1000
0010
1000
0100
,
0001
0000
0100
0000
0001
0100
0001
0000
,
0010
1000
0100
0100
,
0010
0110
0010
0110
,
0001
0010
0001
0100
,
1000
0000
0100
0000
1000
0100
1000
0000
,
0010
0001
0100
0001
,
0010
0110
0010
0110
,
1000
0100
1000
1100
,
0001
0100
0001
0101
,
1000
0100
1000
0100
,
0010
0000
0010
0000
,
0001
0100
0001
0101
,
1000
0100
1000
1100
,
0001
0100
0001
0100
,
0010
0000
0010
0000
,
1001
0000
0000
0000
,
0001
1001
1000
0100
,
1000
0010
1000
1000
,
0100
1001
0110
0000
,
0001
1000
0001
0001
,
1000
1001
0001
0100
,
0001
0010
0001
0001
,
0100
1001
0110
0001
,
1000
0001
1000
1000
,
0100
0000
0100
0010
,
0001
0000
0001
0100
,
0010
0000
0010
0000
0010
0000
1000
0100
,
2000
0000
0100
3100
,
0001
0000
1000
0000
,
0001
0000
0100
0100
,
1000
0000
0001
0000
,
1000
0000
0100
0100
,
0001
0010
1000
0000
,
0001
0010
0100
0100
,
1000
0010
0001
0000
,
1000
0000
0000
0000
,
1000
1001
0001
0100
,
0001
0010
0001
0001
,
0100
1001
0110
0000
,
1000
0001
1000
1000
,
0001
1001
1000
0100
,
1000
0010
1000
1000
,
0100
1001
0110
1000
,
0001
1000
0001
0001
,
0100
0000
0100
0010
,
1000
0000
1000
0100
,
0010
0000
0010
0000
0010
0000
0001
0100
,
0002
1000
1000
1003
,
0010
0000
0010
0100
,
1000
0000
1000
0010
,
0100
0000
0100
0000
0100
0000
0001
0010
,
1000
0000
0001
0010
0001
0000
0100
0000
,
1001
0000
0000
0000
;

//---------------dance-single - ----------------
#NOTES:
     dance-single:
     :
     Hard:
     7:
     :
0000
0000
0000
0000
,
0000
0000
0000
0000
,
0000
0000
0000
0000
,
0000
0000
0000
0000
,
0000
0000
0000
0000
,
0001
0000
0100
0000
1000
0010
0110
0000
,
0001
0000
0010
0000
0001
0010
0011
0001
,
1000
0000
0010
0000
0100
0000
0100
0001
,
0010
0100
1000
0100
0010
0001
0100
0010
,
1000
0000
0100
0000
0001
0010
0110
0000
,
1000
0000
0010
0000
1000
0010
1010
1000
,
0001
0000
0010
0000
0100
0000
0100
1000
,
0010
0100
0001
0100
0010
1000
1010
0000
,
0001
0000
0010
0000
1001
0000
0010
0100
,
0001
0000
0010
0000
1001
0000
0010
0100
,
0001
0010
1001
0010
,
0100
0000
0100
0000
0010
1000
0001
0000
,
1000
0000
0010
0000
1001
0000
0010
0100
,
1000
0000
0010
0000
1001
0000
0010
0100
,
1000
0010
1001
0010
,
0100
0000
0000
0000
0100
0000
0000
0000
0010
0000
0000
1100
0000
0000
0001
0000
,
0010
0000
0000
0000
,
0001
0000
0011
0000
0100
0010
0100
1000
,
0001
0000
0101
0000
0010
1000
0100
0010
,
0001
0000
0110
0000
1001
0000
0100
0010
,
1000
0001
0100
0100
0010
1000
0100
0000
,
1000
0000
1010
0000
0100
0010
0100
0001
,
1000
0000
1100
0000
0010
0001
0100
0010
,
1000
0000
0110
0000
0011
0000
0100
0010
,
0001
1000
0100
0000
0010
0001
0100
0010
,
0100
0000
0100
0000
0100
0001
0010
0100
,
0010
0000
0010
0000
0010
0001
1000
0100
,
1000
0010
1000
0010
1000
0001
0100
0001
,
0020
0000
0130
0110
,
1000
0000
0001
0010
,
0001
0000
0100
0100
,
0001
0000
1000
0001
,
1000
0000
0100
0100
,
1000
0000
0001
0011
,
0001
0000
0100
1100
,
0001
0000
1000
1001
,
0110
0000
0000
0000
,
1000
0000
1010
0000
0100
0010
0100
0001
,
1000
0000
1100
0000
0010
0001
0100
0010
,
1000
0000
0110
0000
1001
0000
0100
0010
,
0001
1000
0100
0100
0010
0001
0100
0000
,
0001
0000
0011
0000
0100
0010
0100
1000
,
0001
0000
0101
0000
0010
1000
0100
0010
,
0001
0000
0110
0000
1010
0000
0100
0010
,
1000
0001
0100
0000
0010
1000
0100
0010
,
0100
0000
0100
0000
0100
1000
0010
0100
,
0010
0000
0010
0000
0010
1000
0001
0100
,
0001
0010
0001
0010
0001
1000
0100
1000
,
0020
0100
0100
0130
,
0010
0000
0010
0000
0010
1000
0100
0010
,
0100
0000
0100
0000
0100
1000
0001
0010
,
0001
0100
0001
0100
0001
1000
0010
1000
,
1010
0000
0010
1000
0100
0000
0010
0001
,
0100
0000
0000
0000
;
