#TITLE:One Step At A Time;
#ARTIST:Jordin Sparks;
#BANNER:One Step At A Time.png;
#BACKGROUND:One Step At A Time-bg.png;
#CDTITLE:./CDTITLES/DanceDanceRevolution HOTTEST PARTY 3.png;
#MUSIC:One Step At A Time.ogg;
#SAMPLESTART:39.682;
#SAMPLELENGTH:15;
#BPMS:0=102;

//---------------dance-single - ----------------
#NOTES:
     dance-single:
     :
     Beginner:
     1:
     :
0000
0000
0000
0000
,
0000
0000
0000
0000
,
0000
0000
0000
0000
,
0000
0000
0000
0000
,
0000
0000
0000
0000
,
1000
0000
0000
0000
,
0001
0000
0000
0000
,
1000
0000
0000
0000
,
0001
0000
0000
0000
,
1000
0000
1000
0000
,
1000
0000
0000
0000
,
0001
0000
0001
0000
,
0001
0000
0000
0000
,
1000
0000
1000
0000
,
1000
0000
0000
0000
,
0001
0000
0001
0000
,
0001
0000
0000
0000
,
1000
1000
0000
0000
,
0001
0001
0000
0000
,
1000
1000
0000
0000
,
0001
0001
0000
0000
,
0010
0000
0000
0000
,
0010
0000
0000
0000
,
0100
0000
0000
0000
,
0100
0000
0000
0000
,
0001
0000
0000
0000
,
0001
0000
0000
0000
,
0001
0000
0000
0000
,
0001
0000
0000
0000
,
1000
0000
0000
0000
,
1000
0000
0000
0000
,
1000
0000
0000
0000
,
1000
0000
0000
0000
,
0000
0000
0010
0000
,
0000
0000
0000
0000
,
0000
0000
0010
0000
,
0000
0000
0000
0000
,
1000
1000
0000
0000
,
0001
0001
0000
0000
,
1000
1000
0000
0000
,
0001
0001
0000
0000
,
0010
0000
0000
0000
,
0010
0000
0000
0000
,
0100
0000
0000
0000
,
0100
0000
0000
0000
,
0100
0000
0000
0000
;

//---------------dance-single - ----------------
#NOTES:
     dance-single:
     :
     Easy:
     2:
     :
0000
0000
0000
0000
,
0000
0000
0000
0000
,
0000
0000
0000
0000
,
0000
0000
0000
0000
,
0000
0000
0000
0000
,
0002
0000
0003
0000
,
2000
0000
3000
0000
,
0001
0000
1000
0000
,
1001
0000
0000
0000
,
2000
0000
3000
0000
,
0020
0000
0030
0000
,
1000
0001
1000
0000
,
0100
0000
0100
0000
,
0002
0000
0003
0000
,
0020
0000
0030
0000
,
0001
0001
0100
0000
,
0010
0010
1000
0000
,
0002
0000
0000
0003
,
1000
1000
0002
0003
,
2000
0000
0000
3000
,
0001
0001
2000
3000
,
0020
0000
0000
0000
,
0000
0000
0030
0000
,
1000
0001
1000
0001
,
1000
0000
0000
0000
,
0002
0003
0200
0300
,
0010
0000
0100
0000
,
2000
3000
0200
0300
,
0010
0000
0100
0000
,
0002
0003
0200
0300
,
0010
0000
0100
0000
,
0200
0000
0300
0000
,
0020
0000
0030
0000
,
2000
0000
0000
0000
,
0000
0000
3000
0000
,
0002
0000
0000
0000
,
0000
0000
0003
0000
,
0002
0000
0000
0003
,
1000
1000
0002
0003
,
2000
0000
0000
3000
,
0001
0001
2000
3000
,
0020
0000
0000
0000
,
0000
0000
0030
0000
,
0001
1000
0001
1000
,
0001
0000
0010
0000
,
0100
0000
0000
0000
;

//---------------dance-single - ----------------
#NOTES:
     dance-single:
     :
     Medium:
     5:
     :
0000
0000
0000
0000
,
0000
0000
0000
0000
,
0000
0000
0000
0000
,
0000
0000
0000
0000
,
0000
0000
0000
0000
,
2000
0000
3010
0100
,
0020
0000
0130
0100
,
0002
0013
2000
3100
,
0002
0000
0010
0013
,
0200
0000
0310
0002
,
0100
0000
0203
0000
0001
0001
0301
0000
,
1000
0010
0001
0100
,
0010
0000
1000
0000
0001
0100
1000
0000
,
0020
0000
0130
2000
,
0100
0000
3200
0000
1000
1000
1300
0000
,
0002
2003
3002
2003
,
3020
0000
0130
0110
,
0002
0000
0023
0000
,
0230
0000
2300
0000
3010
0100
0010
0000
,
2000
0000
3020
0000
,
0230
0000
0302
0000
0013
0100
0010
0000
,
0002
0100
0203
0000
,
2300
0100
0200
3000
,
0301
0100
0010
0100
,
0001
1000
0100
0010
,
0002
0000
0100
0103
,
0200
0000
0010
0310
,
2000
0000
0001
3100
,
0200
0000
0010
1300
,
0002
0000
0100
1003
,
0200
0000
0001
0310
,
1000
0100
1000
0001
,
0100
0010
0100
0110
,
1002
0000
0023
0000
,
0230
0000
2300
0000
,
3020
0000
0230
0000
,
0302
0000
2000
3003
,
0002
0000
0023
0000
,
0230
0000
2300
0000
3010
0100
0010
0000
,
2000
0000
3020
0000
,
0230
0000
0302
0000
0013
0100
0010
0000
,
0002
0010
0203
0000
,
2300
0100
0200
3000
,
0301
0000
0100
0000
0010
0010
0100
0000
,
0001
0001
1000
0000
0100
0000
0010
0000
,
0010
0000
0000
0000
;

//---------------dance-single - ----------------
#NOTES:
     dance-single:
     :
     Hard:
     6:
     :
0000
0000
0000
0000
,
0000
0000
0000
0000
,
0000
0000
0000
0000
,
0000
0000
0000
0000
,
0000
0000
0000
0000
,
0000
1000
0001
0020
0100
0000
0130
0000
,
0001
0100
1000
0200
0001
0000
0301
0000
,
0000
0010
1000
0010
0000
0001
0010
0001
,
0000
0010
1000
0010
0100
0001
0010
0000
,
0100
0100
0100
0100
0001
0010
0002
0000
,
1003
1000
1000
1000
0100
0010
0002
0000
,
0003
0100
1000
0020
0000
0130
0001
0020
,
0000
0032
0100
1003
0010
0100
0001
0000
,
0100
0100
0100
0100
1000
0010
0002
0000
,
1003
1000
1000
1000
0100
0010
0200
0000
,
0300
1000
0001
2000
0000
3010
0100
0010
,
1000
0100
1000
0001
0100
0001
1001
0000
,
0010
0002
0000
0103
0002
0000
1003
0000
,
0010
1000
0010
0100
0010
1000
0100
0000
,
0010
2000
0000
3100
2000
0000
3001
1000
,
0010
0001
0010
0100
0010
1000
0100
0000
,
0200
0010
1000
0310
,
0020
0100
0001
0130
,
2000
0000
3010
0100
2000
0000
3100
0001
,
0020
0000
0130
0010
0100
0010
0100
0000
,
2000
0000
0000
0010
0010
0000
0001
0000
,
0100
0000
0000
0010
0010
0000
3100
0010
,
0002
0000
0000
0010
0010
0000
0100
0000
,
1000
0000
0000
0010
0010
0000
0103
0010
,
2000
0000
0010
0001
,
0100
0000
0000
0000
0010
0000
3100
0010
,
0100
0000
0000
1000
0100
0000
0001
0100
,
0010
0100
0001
1000
0001
1000
0100
0010
,
0200
0000
2000
3000
,
0002
0000
0003
0300
1000
0010
1000
0010
,
0200
0000
0020
0030
,
0002
0000
0003
0300
1000
0100
0010
0100
,
0010
0002
0000
0103
0002
0000
1003
0000
,
0010
1000
0010
0100
0010
1000
0100
0000
,
0010
2000
0000
3100
2000
0000
3001
1000
,
0010
0001
0010
0100
0010
1000
0100
0000
,
0200
0001
1000
0310
,
0020
1000
0001
0130
,
2000
0010
3010
0100
2000
0100
3100
0001
,
0020
0000
0130
0010
0100
0010
0100
1000
,
0001
0000
0000
0000
;
