#TITLE:Never Gonna Give You Up;
#ARTIST:Rick Astley;
#BANNER:Never Gonna Give You Up.png;
#BACKGROUND:Never Gonna Give You Up-bg.png;
#CDTITLE:./CDTITLES/DanceDanceRevolution HOTTEST PARTY 3.png;
#MUSIC:Never Gonna Give You Up.ogg;
#SAMPLESTART:37.576;
#SAMPLELENGTH:15;
#DISPLAYBPM:113;
#BPMS:0=113.34;

//---------------dance-single - ----------------
#NOTES:
     dance-single:
     :
     Beginner:
     1:
     :
0000
0000
0000
0000
,
0000
0000
0000
0000
,
0000
0000
0000
0000
,
0000
0000
0000
0000
,
0000
0000
0000
0000
,
0000
0000
0000
0000
,
0000
1000
0000
0000
,
0000
0001
0000
0000
,
0000
0010
0000
0000
,
0000
0010
0000
0000
,
0000
1000
0000
0000
,
0000
0001
0000
0000
,
0000
0010
0000
0000
,
0000
0010
0000
0000
,
0000
0001
0000
0001
,
0000
1000
0000
0000
,
0000
1000
1000
1000
,
0000
0000
0000
0000
,
0000
0010
0000
0010
,
0000
0010
0000
0000
,
0000
1000
0000
0001
,
0000
0010
0000
0000
,
0000
0010
0000
0010
,
0000
0010
0000
0000
,
0000
1000
0000
0001
,
0000
0010
0000
0000
,
0000
0000
0000
0000
,
0100
0000
0000
0000
,
0000
0000
0000
0000
,
0100
0000
0000
0000
,
0000
0000
0000
0000
,
0100
0000
0000
0000
,
0000
0000
0000
0000
,
0100
0000
0000
0000
,
0000
0001
0000
0001
,
0000
1000
0000
0000
,
0000
1000
1000
1000
,
0000
0000
0000
0000
,
0000
0010
0000
0010
,
0000
0010
0000
0000
,
0000
1000
0000
0001
,
0000
0010
0000
0000
,
0000
0010
0000
0010
,
0000
0010
0000
0000
,
0000
1000
0000
0001
,
0000
0010
0000
0000
,
0000
0010
0000
0010
,
0000
0010
0000
0000
,
0000
1000
0000
0001
,
0000
0010
0000
0000
,
1001
0000
0000
0000
;

//---------------dance-single - ----------------
#NOTES:
     dance-single:
     :
     Easy:
     3:
     :
0000
0000
0000
0000
,
0000
0000
0000
0000
,
0000
0000
0000
0000
,
0000
0000
0000
0000
,
0000
0000
0000
0000
,
0000
0000
0000
0000
,
0000
1000
0000
1000
,
0000
0001
0000
0001
,
0000
1000
0000
0001
,
0000
1000
1000
1000
,
0000
0001
0000
0001
,
0000
1000
0000
1000
,
0000
0001
0000
1000
,
1001
0001
0001
0000
,
0000
1000
0010
1000
,
0000
0001
0000
0010
,
0000
1000
0001
1000
,
0000
0000
0000
0000
,
0001
0001
0100
0100
,
0010
0000
0100
0000
,
1000
0010
0010
0000
,
2000
0000
3001
0000
,
0001
0001
0100
0100
,
0010
0000
0100
0000
,
1000
0010
0010
0000
,
2000
0000
3001
0000
,
0002
0000
0000
0000
,
1003
0000
1000
0000
,
2000
0000
0000
0000
,
3001
0000
0001
0000
,
0002
0000
0000
0000
,
1003
0000
1000
0000
,
2000
0000
0000
0000
,
3001
0000
0000
0000
,
0000
1000
0010
1000
,
0000
0001
0000
0010
,
0000
1000
0001
1000
,
0000
0000
0000
0000
,
0001
0001
0100
0100
,
0010
0000
0100
0000
,
1000
0010
0010
0000
,
2000
0000
3001
0000
,
0001
0001
0100
0100
,
0010
0000
0100
0000
,
1000
0010
0010
0000
,
2000
0000
3001
0000
,
0001
0001
0100
0100
,
0010
0000
0100
0000
,
1000
0010
0010
0000
,
2000
0000
3001
0000
,
1001
0000
0000
0000
;

//---------------dance-single - ----------------
#NOTES:
     dance-single:
     :
     Medium:
     5:
     :
0000
0000
0000
0000
,
0000
0000
0000
0000
,
0000
0000
0000
0000
,
0000
0000
0000
0000
,
0000
0000
0000
0000
,
0000
0000
0000
0000
,
0000
1000
0100
0010
,
0002
0000
0103
0101
,
0010
1000
0001
0010
,
0012
1000
0103
0000
,
0000
0001
0100
0010
,
2000
0000
3100
1100
,
0010
0001
1000
0010
,
1000
0001
0010
0000
0100
0000
1001
0000
,
0200
0000
0010
0301
,
1000
0000
0010
0000
1000
0100
1000
0000
,
0100
0000
0010
0000
0001
0010
0001
0000
,
0000
0110
0000
1001
0000
0000
0100
0000
,
0001
0000
0101
0000
0000
1000
0100
0000
,
0010
0000
0011
0000
0000
0001
0100
0000
,
2000
3100
0002
0103
,
0020
0100
0130
0000
,
1000
0000
1100
0000
0000
0001
0100
0000
,
0010
0000
1010
0000
0000
1000
0100
0000
,
0002
0103
2000
3100
,
0020
0100
0130
0000
,
0002
0000
0000
0000
,
1000
1000
0100
0103
,
2000
0000
0000
0000
,
0001
0001
0100
3100
,
0002
0000
0000
0000
,
1000
1000
0100
0103
,
2000
0000
0000
0000
,
0001
0100
0100
3001
,
0200
0000
0010
1300
,
0001
0000
0010
0000
0001
0100
0001
0000
,
0100
0000
0010
0000
1000
0010
1000
0000
,
0000
0110
0000
1001
0000
0000
0100
0000
,
1000
0000
1100
0000
0000
0001
0100
0000
,
0010
0000
1010
0000
0000
1000
0100
0000
,
0002
0103
2000
3100
,
0020
0100
0130
0000
,
0001
0000
0101
0000
0000
1000
0100
0000
,
0010
0000
0011
0000
0000
0001
0100
0000
,
2000
3100
0002
0103
,
0020
0100
0130
0000
,
0001
0000
0101
0000
0000
1000
0100
0000
,
0010
0000
0011
0000
0000
0001
0100
0000
,
2000
3100
0002
0103
,
0020
0100
0130
0000
,
1001
0000
0000
0000
;

//---------------dance-single - ----------------
#NOTES:
     dance-single:
     :
     Hard:
     6:
     :
0000
0000
0000
0000
,
0000
0000
0000
0000
,
0000
0000
0000
0000
,
0000
0000
0000
0000
,
0000
0000
0000
0000
,
0000
0000
0000
0000
,
0000
0000
0010
0000
0100
0001
0010
0000
,
0002
0000
1000
0000
0103
0001
0101
0000
,
1000
0000
0001
0000
0010
0100
0010
0000
,
0102
0013
2001
3100
,
0000
0000
0010
0000
0100
1000
0010
0000
,
2000
0000
0001
0000
3100
1000
1100
0000
,
0001
0000
1000
0000
0010
0100
0010
0000
,
1000
0001
0010
0100
0010
0000
1001
0000
,
0120
0000
0001
0130
,
1000
0100
0010
0100
1000
0100
0001
0000
,
0100
1000
0010
0000
0001
0100
1000
0100
,
0000
0110
0000
1001
0000
0010
0100
0010
,
0001
0000
0100
0020
0000
1030
0100
0000
,
0010
0000
0001
0200
0000
0310
0110
0000
,
2000
0100
3020
0100
,
1030
0100
0001
0100
0010
0000
0000
0000
,
1000
0000
0100
0020
0000
0031
0100
0000
,
0010
0000
1000
1200
0000
0310
0110
0000
,
0002
0100
0023
0100
,
0031
0100
1000
0100
0010
0000
0000
0000
,
2000
0000
0000
0000
,
0001
0100
0010
3100
,
0002
0000
0000
0000
,
1000
0100
0010
0103
,
2000
0000
0010
0000
,
0001
0100
0010
3100
,
0002
0000
0010
0000
,
1000
0010
1000
0103
,
0120
0000
1000
0130
,
0001
0100
0010
0100
0001
0100
1000
0000
,
0100
0001
0010
0000
1000
0100
0001
0100
,
0000
0110
0000
1001
0000
0010
0100
0010
,
1000
0000
0100
0020
0000
0031
0100
0000
,
0010
0000
1000
0200
0000
0310
0110
0000
,
0002
0100
0023
0100
,
0031
0100
1000
0100
0010
0000
0000
0000
,
0001
0000
0100
0020
0000
1030
0100
0000
,
0010
0000
0001
0201
0000
0310
0110
0000
,
2000
0100
3020
0100
,
1030
0100
0001
0100
0010
0000
0000
0000
,
0001
0000
0100
0020
0000
1030
0100
0000
,
0010
0000
0001
0200
0000
0310
0110
0000
,
2000
0100
3020
0100
,
1030
0100
0001
0100
0010
0000
0000
0000
,
1001
0000
0000
0000
;
