#TITLE:My Prerogative;
#ARTIST:Bobby Brown;
#BANNER:My Prerogative.png;
#BACKGROUND:My Prerogative-bg.png;
#CDTITLE:./CDTITLES/DanceDanceRevolution HOTTEST PARTY 3.png;
#MUSIC:My Prerogative.ogg;
#SAMPLESTART:23.953;
#SAMPLELENGTH:15;
#DISPLAYBPM:110;
#BPMS:0=110.15;

//---------------dance-single - ----------------
#NOTES:
     dance-single:
     :
     Beginner:
     1:
     :
0000
0000
0000
0000
,
0000
0000
0000
0000
,
0000
0000
0000
0000
,
0000
0000
0000
0001
,
0000
0000
0000
1000
,
0000
0000
0000
1000
,
0000
0000
0000
0001
,
0000
0000
0000
1000
,
0000
0000
0000
0001
,
0000
0000
0000
0001
,
0000
0000
0000
1001
,
0000
0000
0000
0001
,
0000
0001
0000
0000
,
0000
1000
0000
1000
,
0000
0000
0000
0000
,
0000
0000
0000
0001
,
0000
0001
0000
0000
,
0000
1000
0000
1000
,
0000
0000
0000
0000
,
0000
0001
0000
0000
,
0000
0010
0000
0000
,
0000
1000
0000
0000
,
0000
0000
0000
0000
,
0000
1000
0000
0000
,
0000
0010
0000
0000
,
0000
0001
0000
0000
,
0000
0000
0000
0000
,
0000
1000
0000
1000
,
0000
0001
0000
0001
,
0000
1000
0000
1000
,
0000
0001
0000
0001
,
0000
0000
0000
0010
,
0000
0000
0000
0100
,
0000
0000
0000
0010
,
0000
0000
0000
1001
,
0000
0000
0000
0001
,
0000
0001
0000
0000
,
0000
1000
0000
1000
,
0000
0000
0000
0000
,
0000
0000
0000
0001
,
0000
0001
0000
0000
,
0000
1000
0000
1000
,
0000
0000
0000
1001
,
0000
0000
0000
0010
,
0000
0000
0000
0100
,
0000
0000
0000
0010
,
0000
0000
0000
0100
,
0000
0000
0000
0010
,
0000
0000
0000
0100
,
0000
0000
0000
0010
,
0000
0000
0000
1001
;

//---------------dance-single - ----------------
#NOTES:
     dance-single:
     :
     Easy:
     3:
     :
0000
0000
0000
0000
,
0000
0000
0000
0000
,
0000
0000
0000
0000
,
0000
0001
0000
0001
,
0000
1000
1000
1000
,
0000
0001
0001
0001
,
0000
0010
0000
0010
,
0000
1000
0000
1000
,
0000
0100
0000
0100
,
0000
0001
0000
0001
,
0000
1001
0000
0000
,
0000
1000
0000
0001
,
0000
0001
0001
0000
,
0000
0010
0010
0000
,
0000
0000
0000
0000
,
0000
0001
0000
1000
,
0000
1000
1000
0000
,
0000
0010
0010
0000
,
0000
0000
0000
0000
,
0000
0001
0000
1000
,
0000
0001
0001
0000
,
0000
0100
0000
0010
,
0000
1000
0001
1001
,
0000
1000
0000
0001
,
0000
1000
1000
0000
,
0000
0100
0000
0010
,
0000
0001
1000
1001
,
0000
0100
0000
0000
,
0000
0010
0000
0000
,
0000
1000
0000
0000
,
0000
0001
0000
0000
,
0000
0010
0000
0000
,
0000
1000
0000
0000
,
0000
0001
0000
0000
,
0000
1001
1001
0000
,
0000
1000
0000
0001
,
0000
0001
0001
0000
,
0000
0010
0010
0000
,
0000
0000
0000
0000
,
0000
0001
0000
1000
,
0000
1000
1000
0000
,
0000
0010
0010
0000
,
0000
0001
1000
0001
,
1001
0000
1000
0000
,
0001
1000
0001
0000
,
1001
0000
0001
0000
,
1000
0001
1000
0000
,
1001
0000
1000
0000
,
0001
1000
0001
0000
,
1001
0000
0001
0000
,
0100
0010
0100
0010
,
0110
0000
0000
0000
;

//---------------dance-single - ----------------
#NOTES:
     dance-single:
     :
     Medium:
     5:
     :
0000
0000
0000
0000
,
0000
0000
0000
0000
,
0000
0000
0000
0000
,
0001
0100
0001
0010
,
1000
0100
1000
1100
,
0001
0100
0001
0101
,
1000
0100
0010
0001
,
1000
0100
1000
0010
,
0100
0001
1000
0100
,
1000
0001
0100
0000
0100
0010
1000
0000
,
0001
1000
1001
0000
,
0100
0100
0010
0110
,
0001
0000
0001
1000
0100
0000
0100
0000
,
0010
0011
0100
0100
,
1000
0001
0000
1001
,
0010
0010
0100
0110
,
1000
0000
1000
0001
0100
0000
0100
0000
,
0010
1010
0100
0100
,
0010
0000
0000
0000
,
0001
0100
0010
1000
,
1000
0010
0100
0100
,
0001
0010
1000
0100
,
1000
1100
0100
1100
,
1000
0100
0010
0001
,
0001
0010
0100
0100
,
1000
0010
0001
0100
,
0001
0101
0100
0101
,
1000
0000
0100
0000
0000
0001
0100
0000
,
0010
0100
0010
0000
0000
1000
0001
0000
,
1000
1010
0100
0001
,
0010
0100
1000
1001
,
0001
0000
0100
0000
0000
0010
0100
0000
,
0001
1000
0001
0000
0000
1000
0100
0000
,
0010
0011
0001
1000
,
0010
0000
1001
1001
,
0100
0100
0010
0110
,
0001
0000
0001
1000
0100
0000
0100
0000
,
0010
0011
0100
0100
,
1000
0001
0000
1001
,
0010
0010
0100
0110
,
1000
0000
1000
0001
0100
0000
0100
0000
,
0010
1010
0100
0100
,
0110
0110
1001
1001
,
0010
0000
0000
0000
1000
0001
0010
0000
,
1000
1000
0001
0001
,
0010
0000
0000
0000
0001
1000
0010
0000
,
0001
0001
1000
1001
,
0010
0000
0000
0000
1000
0001
0010
0000
,
1000
1001
0001
0001
,
0010
0000
0000
0000
0001
1000
0001
0000
,
0100
0000
0100
0000
0010
0010
0010
0000
,
1001
0000
0000
0000
;

//---------------dance-single - ----------------
#NOTES:
     dance-single:
     :
     Hard:
     7:
     :
0000
0000
0000
0000
,
0000
0000
0000
0000
,
0000
0000
0000
0000
,
0001
0100
0010
0101
,
1000
0100
1000
1100
,
0001
0010
0001
0101
,
1000
0010
0100
0001
0010
0100
1000
0000
,
1000
0000
0100
1000
0010
0000
1010
0000
,
0001
0100
1000
0100
,
0001
0000
0100
0001
0010
0001
0101
0000
,
1000
0001
1001
0000
,
0100
0010
0100
0000
0100
0010
0100
0000
,
1000
0001
1000
0010
0100
0001
0100
0000
,
0010
0001
0010
0100
0010
0001
1000
0000
,
0010
0000
0100
0010
0000
1000
1001
0000
,
0010
0100
0010
0000
0010
0100
0110
0000
,
0001
1000
0001
0010
0100
1000
1100
0000
,
0010
1000
0010
0100
0010
1000
1001
0000
,
0010
0000
0100
0100
,
0001
0100
1000
0100
,
0001
0010
1000
0100
,
0010
1000
0001
0100
,
0001
0100
0010
1000
0000
0100
0110
0000
,
1000
0100
0001
0100
,
1000
0010
0001
0100
,
0010
0001
1000
0100
,
1000
0100
0010
0001
0100
0100
0110
0000
,
0001
0000
0100
0001
0000
1000
0010
0100
,
0001
1000
0100
0001
0000
1000
0001
0000
,
0010
1100
0010
0101
,
0010
0010
0110
0000
1000
1000
1001
0000
,
0010
0000
0100
0010
0000
0100
0001
1000
,
1000
0010
0100
0010
0100
0000
0011
0000
,
1100
0011
0101
1010
,
1000
0001
1000
0001
1010
0110
1001
0000
,
0100
0010
0100
0000
0100
0010
0100
0000
,
0001
1000
0001
0010
0100
1000
0100
0000
,
0010
1000
0010
0100
0010
1000
0001
0000
,
0010
0000
0100
0010
0000
0001
1001
0000
,
0010
0100
0010
0000
0010
0100
0110
0000
,
1000
0001
1000
0010
0100
0001
0101
0000
,
0010
0001
0010
0100
0010
0001
1001
0000
,
0110
1001
0011
1010
,
1001
0000
0100
0010
0000
0010
0110
0000
,
0001
1000
0000
1000
0010
1000
0001
0000
,
1001
0000
0010
0100
0000
0100
0110
0000
,
1000
0001
0100
0001
0100
0001
1000
0000
,
1001
0000
0100
0010
0000
0010
0110
0000
,
0001
1000
0010
1000
0100
1000
0001
0000
,
1001
0000
0010
0100
1000
0100
0110
0000
,
0001
0000
1000
0000
0110
1001
0110
0000
,
1001
0000
0000
0000
;
