#TITLE:I'm Coming Out;
#ARTIST:Diana Ross;
#BANNER:I'm Coming Out.png;
#BACKGROUND:I'm Coming Out-bg.png;
#CDTITLE:./CDTITLES/DanceDanceRevolution HOTTEST PARTY 3.png;
#MUSIC:I'm Coming Out.ogg;
#SAMPLESTART:63.695;
#SAMPLELENGTH:15;
#DISPLAYBPM:110;
#BPMS:0=109.6,51=107.6,53=108.6,68=108.8,84=109.2,100=108.8,112=110.2,116=109.8,125.5=108.8,132=108.6,148=108.9;

//---------------dance-single - ----------------
#NOTES:
     dance-single:
     :
     Beginner:
     1:
     :
0000
0000
0000
0000
,
0000
0000
0000
0000
,
0000
0000
0000
0000
,
0000
0000
0000
0000
,
0000
0000
0000
0000
,
0000
0000
0000
0000
,
0000
0000
0000
0000
,
0000
0000
0000
0000
,
0000
0000
0000
0000
,
1000
0000
0000
0000
,
0001
0000
0000
0000
,
0001
0000
0000
0000
,
1000
0000
1000
0000
,
1000
0000
0000
0000
,
0001
0000
0000
0000
,
0001
0000
0000
0000
,
1000
0000
1000
0000
,
0001
0000
0000
0000
,
0010
0000
0000
0000
,
0010
0000
0000
0000
,
1000
1000
1000
0000
,
0001
0000
0000
0000
,
0010
0000
0000
0000
,
0010
0000
0000
0000
,
1000
1000
1000
0000
,
0001
0000
0000
0000
,
0100
0000
0000
0000
,
1000
0000
0000
0000
,
1001
0000
1001
0000
,
0001
0000
0000
0000
,
1000
0000
0000
0000
,
1000
0000
0000
0000
,
0001
0000
0001
0000
,
0001
0000
0000
0000
,
1000
0000
0000
0000
,
1000
0000
0000
0000
,
0001
0000
0001
0000
,
1000
0000
0001
0000
,
1000
1000
0000
0000
,
0001
0001
0000
0000
,
0010
0010
0000
0000
,
1001
0000
0000
0000
;

//---------------dance-single - ----------------
#NOTES:
     dance-single:
     :
     Easy:
     2:
     :
0000
0000
0000
0000
,
0000
0000
0000
0000
,
0000
0000
0000
0000
,
0000
0000
0000
0000
,
0000
0000
0000
0000
,
0000
0000
0000
0000
,
0000
0000
0000
0000
,
0000
0000
0000
0000
,
0000
0000
0000
0000
,
0001
0000
1000
0000
,
0001
0000
0100
0000
,
0001
0000
0100
0000
,
1000
1000
0010
0000
,
0001
0000
1000
0000
,
0001
0000
0100
0000
,
0001
0000
0100
0000
,
1000
1000
0010
0000
,
0001
0000
0000
0000
,
1000
0000
0001
0000
,
1000
0000
0001
0000
,
0100
0100
0100
0000
,
1000
0000
0000
0000
,
0001
0000
1000
0000
,
0001
0000
1000
0000
,
0100
0100
0100
0000
,
2000
0000
3000
0000
,
0010
0000
0100
0000
,
0002
0000
0003
0000
,
1001
0000
0110
0000
,
0001
0000
1000
0000
,
0001
0000
0100
0000
,
0001
0000
0100
0000
,
1000
1000
0010
0000
,
0001
0000
1000
0000
,
0001
0000
0100
0000
,
0001
0000
0100
0000
,
1000
1000
0010
0000
,
1001
0000
0100
0100
,
1000
1000
0100
0100
,
0001
0001
0100
0100
,
0001
1000
0001
1000
,
1001
0000
0000
0000
;

//---------------dance-single - ----------------
#NOTES:
     dance-single:
     :
     Medium:
     4:
     :
0000
0000
0000
0000
,
0000
0000
0000
0000
,
0000
0000
0000
0000
,
0000
0000
0000
0000
,
0000
0000
0000
0000
,
0000
0000
0000
0000
,
0000
0000
0000
0000
,
0000
0000
0000
0000
,
0000
0000
0000
0000
,
0001
0000
1000
0000
0000
0100
0100
0000
,
1000
0010
0100
0001
,
0001
0010
0100
1000
,
0010
0100
0010
0000
0100
0000
0100
0000
,
1000
0000
0001
0000
0000
0100
0100
0000
,
0001
0010
0100
1000
,
1000
0010
0100
0001
,
0010
0100
0010
0000
0100
0000
0100
0000
,
1000
1000
0100
0001
,
0100
2000
3001
0020
,
0130
0002
1003
0020
,
1030
1000
0001
0000
,
0001
0001
0100
1000
,
0100
0002
1003
0020
,
0130
2000
3001
0020
,
0031
0001
1000
0000
,
0020
0000
1030
0100
,
2000
0000
3002
0000
,
0203
0310
0002
0103
,
0110
0000
1001
0100
,
0001
0000
1000
0000
0000
0100
0100
0000
,
1000
0010
0100
0001
,
0001
0010
0100
1000
,
0010
0100
0010
0000
0100
0000
0100
0000
,
1000
0000
0001
0000
0000
0100
0100
0000
,
0001
0010
0100
1000
,
1000
0010
0100
0001
,
0010
0100
0010
0000
0100
0000
0100
0000
,
2100
0000
0000
0000
3001
1000
0001
0000
,
1000
0100
1000
0000
0001
0010
0001
0000
,
0001
0100
0001
0000
1000
0010
1000
0000
,
0001
0010
0100
0010
,
0101
0000
0000
0000
;

//---------------dance-single - ----------------
#NOTES:
     dance-single:
     :
     Hard:
     5:
     :
0000
0000
0000
0000
,
0000
0000
0000
0000
,
0000
0000
0000
0000
,
0000
0000
0000
0000
,
0000
0000
0000
0000
,
0000
0000
0000
0000
,
0000
0000
0000
0000
,
0000
0000
0000
0000
,
0000
0000
0000
0000
,
0001
0010
0200
0000
0000
1000
1300
0000
,
0001
0010
0100
0100
0010
1000
0001
0010
,
0001
0000
0100
0100
0010
1000
0001
0010
,
0100
0000
0001
0000
0100
0100
0100
0000
,
1000
0010
0200
0000
0000
0001
0301
0000
,
1000
0010
0100
0100
0010
0001
1000
0010
,
1000
0000
0100
0100
0010
0001
1000
0010
,
0100
0000
1000
0000
0100
0100
0100
0000
,
1000
0000
0010
0000
0100
0001
0010
0000
,
0001
0100
2000
0000
3100
0000
0002
0000
,
1003
0100
0002
0000
0103
0000
2000
0000
,
3001
0010
0002
0000
2003
0000
3100
0000
,
0001
0000
0010
0000
0100
1000
0010
0000
,
1000
0100
0002
0000
0103
0000
1000
0000
,
0001
0100
2000
0000
3100
0000
0002
0000
,
1003
0010
2000
0000
3020
0000
0130
0000
,
0001
1000
0002
0000
0010
0000
0103
0000
,
0020
1000
0230
0001
,
2300
0010
3002
0103
,
0021
0130
1020
0130
,
0001
0010
0200
0000
0000
1000
1300
0000
,
0001
0010
0100
0100
0010
1000
0001
0010
,
0001
0000
0100
0100
0010
1000
0001
0010
,
0100
0000
0001
0000
0100
0100
0100
0000
,
1000
0010
0200
0000
0000
0001
0301
0000
,
1000
0010
0100
0100
0010
0001
1000
0010
,
1000
0000
0100
0100
0010
0001
1000
0010
,
0100
0000
1000
0000
0100
0100
0100
0000
,
0101
0001
0200
0000
0302
1000
1003
0000
,
0100
0020
0001
0030
0100
0010
1000
0000
,
0100
0020
0001
0030
0100
0010
0100
0000
,
1000
0000
0010
0000
0001
1000
0001
0000
,
1100
0000
0000
0000
;
