#TITLE:Hungry Like The Wolf;
#ARTIST:Duran Duran;
#BANNER:Hungry Like The Wolf.png;
#BACKGROUND:Hungry Like The Wolf-bg.png;
#CDTITLE:./CDTITLES/DanceDanceRevolution HOTTEST PARTY 3.png;
#MUSIC:Hungry Like The Wolf.ogg;
#SAMPLESTART:36.089;
#SAMPLELENGTH:15;
#DISPLAYBPM:127;
#BPMS:0=127.1;

//---------------dance-single - ----------------
#NOTES:
     dance-single:
     :
     Beginner:
     1:
     :
0000
0000
0000
0000
,
0000
0000
0000
0000
,
0000
0000
0000
0000
,
0001
0000
0000
0000
,
1000
0000
0000
0000
,
1000
0000
0000
0000
,
0100
0000
0000
0000
,
1000
0000
0000
0000
,
0001
0000
0000
0000
,
0100
0000
0000
0000
,
0000
0000
0000
0000
,
1000
0000
0000
0000
,
0001
0000
0000
0000
,
0001
0000
0000
0000
,
0100
0000
0000
0000
,
0001
0000
0000
0000
,
1000
0000
0000
0000
,
0100
0000
0000
0000
,
0000
0000
0000
0000
,
1000
0000
0000
0000
,
0000
0000
0000
0000
,
0001
0000
0000
0000
,
1001
0000
0000
0000
,
1000
0000
0000
0000
,
0000
0000
0000
0000
,
0010
0000
1000
0000
,
0001
0000
0000
0000
,
0001
0000
0000
0000
,
0000
0000
0000
0000
,
0100
0100
0100
0000
,
0000
0000
0000
0000
,
1000
0000
0000
0000
,
0000
0000
0000
0000
,
1000
0000
0001
0000
,
0000
0000
0000
0000
,
1001
0000
0000
0000
,
0000
0000
0000
0000
,
0100
0000
0000
0000
,
0000
0000
0000
0000
,
0100
0000
0000
0000
,
0000
0000
0000
0000
,
1000
0000
0000
0000
,
0000
0000
0000
0000
,
0001
0000
0000
0000
,
1000
0000
0000
0000
,
0001
0000
0000
0000
,
1000
0000
0000
0000
,
0001
0000
0000
0000
,
0000
0000
0000
0000
,
1000
0000
0000
0000
,
0100
0000
0000
0000
,
0001
0000
0000
0000
,
0000
0000
0000
0000
,
1000
0000
0000
0000
,
1001
0000
0000
0000
,
0001
0000
0000
0000
,
0000
0000
0000
0000
,
0010
0000
0100
0100
;

//---------------dance-single - ----------------
#NOTES:
     dance-single:
     :
     Easy:
     2:
     :
0000
0000
0000
0000
,
0000
0000
0000
0000
,
0000
0000
0000
0000
,
0001
0000
0001
0000
,
1000
0000
0000
0000
,
1000
0000
1000
0000
,
0001
0000
0100
0000
,
2000
0000
3000
0000
,
0002
0000
0003
0000
,
0100
0000
0100
0000
,
0000
0000
0000
0000
,
1000
0000
1000
0000
,
0001
0000
0000
0000
,
0001
0000
0001
0000
,
1000
0000
0100
0000
,
0002
0000
0003
0000
,
2000
0000
3000
0000
,
0100
0000
0100
0000
,
0000
0000
0000
0000
,
1000
0000
0001
0000
,
0001
0000
0000
0000
,
0001
0000
1000
0000
,
1001
0000
0000
0000
,
1000
0000
0100
0000
,
1000
0000
0000
0000
,
0010
0010
1000
0000
,
0001
0000
0000
0000
,
0001
0000
0100
0000
,
0001
0000
0000
0000
,
0100
0100
0001
0000
,
1000
0000
0000
0000
,
1000
0000
0100
0000
,
1000
0000
0000
0000
,
1000
0001
1000
0001
,
0000
0000
0000
0000
,
1001
0000
0000
0000
,
0100
0000
0000
0000
,
0010
0000
0000
0000
,
0100
0000
0000
0000
,
1000
0000
0000
0000
,
0100
0000
0000
0000
,
0010
0000
0000
0000
,
0001
0000
0000
0000
,
1000
0000
1000
0000
,
0001
0000
0001
0000
,
1000
0000
0100
0000
,
0100
0000
0100
0000
,
0010
0000
0000
0000
,
0100
0000
0000
0000
,
0010
0000
0000
0100
,
0100
0000
0000
0000
,
0001
0000
1000
0000
,
1000
0000
0000
0000
,
1000
0000
0001
0000
,
1001
0000
0000
0000
,
0001
0000
0100
0000
,
0001
0000
0000
0000
,
0010
0010
0001
1000
,
0001
0000
0000
0000
;

//---------------dance-single - ----------------
#NOTES:
     dance-single:
     :
     Medium:
     4:
     :
0000
0000
0000
0000
,
0000
0000
0000
0000
,
0000
0000
0000
0000
,
0001
1000
0001
0100
,
1000
0000
0100
0000
0000
1000
0001
0000
,
1000
0001
1000
0100
,
0001
0000
0100
0100
0000
0000
0000
0000
,
2000
0000
3002
0000
,
0203
0000
0320
0000
,
0130
0000
0000
0001
1000
0000
0000
0000
,
0000
0000
0000
0000
,
0001
1000
0001
0010
,
1000
0000
0010
0000
0000
1000
0001
0000
,
1000
0001
1000
0010
,
0001
0000
0010
0010
0000
0000
0000
0000
,
2000
0000
3002
0000
,
0023
0000
0230
0000
,
0310
0000
0000
0001
1000
0000
0000
0000
,
0000
0000
0000
0000
,
1000
0000
0010
0100
,
0001
0100
0100
0000
,
0001
1000
1000
0001
,
1001
0000
0000
0000
,
1000
0000
0100
0010
,
1000
0100
0100
0000
,
0010
0000
0010
0000
0000
1000
0100
1000
,
0000
0000
0000
0000
,
0001
0000
0100
0010
,
0001
0010
0010
0000
,
0100
0000
0100
0000
0000
0001
0100
0001
,
1000
0000
0000
0000
,
1000
0000
0100
0010
,
1000
0010
0010
0000
,
1000
0001
1000
0001
,
2000
0000
3000
0000
,
0110
1001
0000
0100
,
0000
0010
0000
0001
,
0000
0010
0000
0100
,
0000
0010
0000
0001
,
0000
0100
0000
0010
,
0000
0100
0000
1000
,
0000
0100
0000
1000
,
0000
0010
0000
0010
,
0000
1000
0000
0100
,
0000
0001
0000
0100
,
0000
0010
0000
1000
,
0001
0000
1000
0000
0010
0100
0001
0000
,
0000
0010
0000
0100
,
0000
0010
0000
0001
,
0000
0000
0010
0000
0000
0000
0100
0010
,
0001
0000
0000
0000
,
1000
0000
0010
0100
,
0001
0100
0100
0000
,
0001
1000
1000
0001
,
1001
0000
0000
0000
,
1000
0000
0100
0010
,
1000
0100
0100
0000
,
0010
0000
0010
0000
0000
0001
0100
0001
,
1000
0000
0000
0000
;

//---------------dance-single - ----------------
#NOTES:
     dance-single:
     :
     Hard:
     6:
     :
0000
0000
0000
0000
,
0000
0000
0000
0000
,
0000
0000
0000
0000
,
0001
0000
1000
0000
0001
0100
0001
0000
,
1000
0010
0100
0001
0000
1000
0001
0000
,
1000
0000
0001
0000
1000
0100
1000
0000
,
0001
0010
0100
1000
0000
0000
0000
0000
,
1000
0000
0100
0000
1000
0000
0001
0000
0100
0000
0001
0000
,
1000
0000
0010
0000
1000
0000
0001
0000
0010
0000
0001
0000
,
0000
0100
0000
0001
1000
0000
0000
0000
,
0000
0000
0000
0000
,
0001
0000
1000
0000
0001
0010
0001
0000
,
1000
0100
0010
0001
0000
1000
0001
0000
,
1000
0000
0001
0000
1000
0010
1000
0000
,
0001
0100
0010
1000
0000
0000
0000
0000
,
1000
0000
0010
0000
1000
0000
0001
0000
0010
0000
0001
0000
,
1000
0000
0100
0000
1000
0000
0001
0000
0100
0000
0001
0000
,
0000
0010
0000
0001
1000
0000
0000
0000
,
0000
0000
0000
0000
,
1000
0100
0010
0010
,
0001
0000
0100
0010
0100
0000
0000
0000
,
0001
0000
1000
0100
1000
0000
0001
0000
,
1000
0000
0001
0100
0001
0000
0000
0000
,
1000
0001
0100
0100
,
1000
0000
0100
0010
0100
0000
0000
0000
,
0010
0000
0010
0001
0000
1000
0100
1000
,
0001
1100
0001
0000
,
0001
1000
0100
0100
,
0001
0000
0010
0100
0010
0000
0000
0000
,
0100
0000
0100
1000
0000
0001
0100
0001
,
1000
0000
0001
0100
0001
0000
0000
0000
,
1000
0001
0100
0100
,
1000
0000
0010
0100
0010
0000
0000
0000
,
1000
0000
0001
0100
1000
0000
0001
0000
,
2000
0000
3000
0000
,
0110
0000
1001
0000
0000
1000
0100
1000
,
0000
0000
0010
0000
0000
0100
0001
0100
,
0000
0000
0010
0000
0000
1000
0100
1000
,
0000
0000
0010
0000
0000
1000
0001
1000
,
0000
0000
0100
0000
0000
0001
0010
0001
,
0000
0000
0100
0000
0000
0010
1000
0010
,
0000
0000
0100
0000
0000
0001
1000
0100
,
0000
0000
0010
0000
0000
0001
0010
0100
,
0000
1000
0000
0100
,
0000
0001
0000
0100
,
0000
0010
0000
1000
,
0001
0000
1000
0000
0010
0100
0001
1000
,
0000
0000
0010
0000
0000
1000
0100
1000
,
0000
0000
0010
0000
0000
0100
0001
0100
,
0000
0000
0010
0000
0000
1000
0100
0010
,
0002
0000
0003
0000
,
0001
0100
0010
0010
,
1000
0000
0100
0010
0100
0000
0000
0000
,
1000
0000
0001
0100
0001
0000
1000
0000
,
0001
0000
1000
0100
1000
0000
0000
0000
,
0001
1000
0100
0100
,
0001
0000
0100
0010
0100
0000
0000
0000
,
0010
0000
0010
1000
0000
0001
0100
0001
,
1000
0101
1000
0000
;
