#TITLE:HOTTEST PARTY;
#ARTIST:Various Artists;
#BANNER:HOTTEST PARTY.png;
#BACKGROUND:HOTTEST PARTY-bg.png;
#CDTITLE:./CDTITLES/DanceDanceRevolution HOTTEST PARTY 3.png;
#MUSIC:HOTTEST PARTY.ogg;
#SAMPLESTART:2.234;
#SAMPLELENGTH:15;
#DISPLAYBPM:120:170;
#BPMS:0=144.3,5=145,77=131,80=130,141=140,233=128.5,236=130,300.5=120,368.5=148,370.5=150,442.5=151.5,444.5=150,548.5=168,550.5=170;
#STOPS:554.5=0.176,561.5=0.353,577=0.529;

//---------------dance-single - ----------------
#NOTES:
     dance-single:
     :
     Beginner:
     4:
     :
0000
0000
0000
0000
,
0000
0000
0000
0000
,
0000
0000
0000
0000
,
0000
0000
0000
0000
,
0001
0000
0000
0000
,
1000
0000
0000
0000
,
0001
0000
0000
0000
,
1000
0000
0000
0000
,
0001
0000
0000
0000
,
1000
0000
0000
0000
,
1001
0000
0000
0000
,
1000
0000
0000
0000
,
0001
0000
0000
0000
,
1000
0000
0000
0000
,
1000
0000
0000
0000
,
0001
0000
0000
0000
,
1000
0000
1000
0000
,
0001
0000
0000
0000
,
2002
0000
0000
0000
,
0000
0000
3003
0000
,
0000
0000
0000
0000
,
0000
0000
0000
0000
,
0000
0000
0000
0000
,
0000
0010
0100
0100
,
0000
0010
0000
0001
,
0000
1000
0100
0100
,
0000
0001
0001
0001
,
0000
1000
0010
0010
,
0000
0001
0000
0010
,
0000
1000
0100
0100
,
0000
0010
0010
0010
,
0000
0100
0000
0000
,
0000
0010
0000
0000
,
0000
0001
0000
0000
,
0000
1000
0000
0000
,
0000
0002
0000
0003
,
0000
2000
0000
3000
,
0000
0002
0000
0000
,
0000
0000
0000
0003
,
0000
0010
0000
0000
,
0000
1000
0000
0000
,
0000
0100
0000
0000
,
0000
0001
0001
0001
,
0000
1000
1000
1000
,
0000
0001
0001
0000
,
0000
0100
0000
0000
,
0000
1001
0000
0000
,
0000
0100
0000
0000
,
0000
0001
0000
0000
,
0000
0010
0000
0000
,
0000
1000
1000
1000
,
0000
1000
1000
0000
,
0000
0100
0000
0000
,
0000
2000
0000
3000
,
0000
0002
0000
0003
,
0000
2000
0000
0000
,
0000
0000
0000
3000
,
0000
0002
0000
0000
,
0000
0003
0000
0000
,
0000
0100
0000
0000
0000
0100
0000
0000
,
0000
0100
0000
0000
0000
0000
0000
0000
,
0000
0001
0000
0000
0000
0010
0000
0000
,
0000
0100
0000
0000
0000
0000
0000
0000
,
0000
1000
0000
0000
0000
1000
0000
0000
,
0000
1000
0000
0000
0000
0000
0000
0000
,
0000
0010
0000
0000
0000
0100
0000
0000
,
0000
0001
0000
0000
0000
0000
0000
0000
,
0000
1001
0000
0000
0000
0000
0000
0000
,
0000
0100
0000
0000
0000
0000
0000
0000
,
0000
1000
0000
0000
0000
1000
0000
0000
,
0000
0001
0000
0000
0000
0001
0000
0000
,
0000
0100
0000
0000
0000
0000
0000
0000
,
0000
0010
0000
0000
0000
0000
0000
0000
,
0000
1000
0000
0000
0000
0001
0000
0000
,
0000
1000
0000
0000
0000
0000
0000
0000
,
0000
1001
0000
0000
0000
0000
0000
0000
,
0000
1000
0000
0000
0000
0010
0000
0000
,
0000
0100
0000
0000
0000
0000
0000
0000
,
0000
0010
0000
0000
0000
0000
0000
0000
,
0000
1001
0000
0000
0000
0000
0000
0000
,
0000
1000
0000
0000
0000
0000
0000
0000
,
0000
0001
0000
0000
0000
0000
0000
0000
,
0000
0200
0000
0000
0000
0000
0000
0300
,
0000
0000
0000
0000
0000
0010
0000
0010
,
0000
0000
0000
0000
0000
0100
0000
0000
,
0000
0002
0000
0000
0000
0000
0000
0000
,
0000
0000
0000
0000
,
0000
0003
0000
0000
0000
0000
0000
0000
,
0000
0100
0000
0000
0000
0000
0000
0000
,
0000
1000
0000
0000
0000
0000
0000
0000
,
0000
0110
0000
0000
0000
0110
0000
0000
,
0000
1001
0000
0000
0000
0000
0000
0000
,
0000
0110
0000
0000
0000
0000
0000
0000
,
0000
1000
0000
1000
0000
0000
0000
0000
,
0000
0010
0000
0000
0000
0000
0000
0000
,
0000
0100
0000
0000
0000
0000
0000
0000
,
0000
0001
0000
0001
0000
0000
0000
0000
,
0000
1000
0000
0000
0000
1000
0000
0000
,
0000
1000
0000
0000
0000
0000
0000
0000
,
0000
0001
0000
0000
0000
0001
0000
0000
,
0000
0001
0000
0000
0000
0000
0000
0000
,
0000
0010
0000
0000
0000
0010
0000
0000
,
0000
0010
0000
0000
0000
0000
0000
0000
,
0000
0100
0000
0000
0000
0100
0000
0000
,
0000
0100
0000
0000
0000
0000
0000
0000
,
0000
1000
0000
0000
0000
0000
0000
0000
,
0000
0100
0000
0000
0000
0000
0000
0000
,
0000
0001
0000
0000
0000
0000
0000
0000
,
0000
0100
0000
0000
0000
0000
0000
0000
,
0000
1001
0000
0000
0000
0000
0000
0000
,
0000
0000
0000
0000
,
0000
0001
0000
0000
0000
0000
0000
0000
,
0000
0001
0000
0000
0000
0000
0000
0000
,
0000
1000
0000
0000
0000
1000
0000
0000
,
0000
0001
0000
0000
0000
0000
0000
0000
,
0000
0001
0000
0000
0000
0000
0000
0000
,
0000
0001
0000
0000
0000
0000
0000
0000
,
0000
1000
0000
0000
0000
1000
0000
0000
,
0000
0001
0000
0000
0000
0000
0000
0000
,
0000
0001
0000
0000
0000
0000
0000
0000
,
0000
1000
0000
0000
0000
0010
0000
0000
,
0000
1000
0000
0000
0000
0000
0000
0000
,
0000
0001
0000
0000
0000
0100
0000
0000
,
0000
0010
0000
0000
0000
0000
0000
0000
,
0000
1000
0000
0000
0000
0000
0000
0000
,
0000
0100
0000
0000
0000
0000
0000
0000
,
0000
0000
0000
0000
,
0000
0001
0000
0000
0000
0000
0000
0000
,
0000
1000
0000
0000
0000
0010
0000
0000
,
0000
1000
0000
0000
0000
0000
0000
0000
,
0000
0001
0000
0000
0000
0100
0000
0000
,
0000
0010
0000
0000
0000
0000
0000
0000
,
0000
0001
0000
0000
0000
1000
0000
0000
,
0000
0100
0000
0000
0000
0000
0000
0000
,
0000
0000
0000
0000
,
0000
0100
0000
0000
0000
0100
0000
0000
,
0000
0100
0000
0100
0000
0100
0000
0000
,
0000
0000
0000
0000
,
0000
0000
0000
0000
0000
0100
0000
0000
,
0000
0000
0010
0000
,
0000
0000
0000
0100
,
0000
0000
0000
0001
,
0000
0000
0000
1000
,
0000
1000
0000
1000
,
0000
0000
0000
0000
0000
1000
0000
0000
,
0000
1000
0000
0000
0000
0001
0000
0000
,
0000
0001
0000
0000
0000
0100
0000
0000
,
0000
1000
0000
0000
0000
0100
0000
0000
,
0000
0001
0000
0000
0000
1000
0000
0000
,
0000
1000
0000
0000
0000
0001
0000
0000
,
0000
0001
0000
0000
0000
0010
0000
0000
,
0000
1000
0000
0000
0000
0010
0000
0000
,
0000
0001
0000
0001
0000
0001
0000
0000
,
0000
0000
0000
0000
0000
1000
0000
1000
,
0000
0000
0000
0010
0000
0000
0000
0100
,
0000
0000
0000
0010
0000
0000
0000
0100
,
0000
0000
0000
0001
0000
0001
0000
0000
,
0000
0000
0000
1000
0000
1000
0000
0000
,
0000
0100
0000
0000
0000
0010
0000
0000
,
0000
0100
0000
0000
0000
0010
0000
0000
,
0000
0001
0000
0001
0000
0000
0000
1000
,
0000
0000
0000
0001
0000
0000
0000
1001
;

//---------------dance-single - ----------------
#NOTES:
     dance-single:
     :
     Easy:
     7:
     :
0000
0000
0000
0000
,
0000
0000
0000
0000
,
0000
0000
0000
0000
,
0000
0000
0000
0000
,
0001
0000
0000
0000
,
1000
0000
0000
0000
,
0110
0000
0000
0000
,
1001
0000
0000
0000
,
0010
0000
0100
0000
,
1000
0000
0001
0000
,
0000
0000
0010
0000
,
0001
0000
0000
0000
,
0100
0100
0100
0000
,
0010
0010
0010
0000
,
0000
0000
1001
0000
,
0000
0000
1001
0000
,
0000
0000
0000
0000
,
1000
0001
1000
0001
,
2002
0000
0000
0000
,
0000
0000
3003
0000
,
0000
0000
0000
0000
,
0000
0000
0000
0000
,
0000
0000
0000
0000
,
0000
0000
0010
0000
,
0100
1000
0100
0000
,
0010
0000
0001
0000
,
1000
0010
0100
0011
,
0000
1000
0100
0000
,
1000
0000
0010
0000
,
0100
0001
0010
0000
,
0100
1000
0100
0011
,
0000
1000
1000
0000
,
0000
0010
0010
0000
,
0100
0010
0010
0000
,
1000
0001
0001
0000
,
0100
2000
0000
0000
,
3000
0002
0000
0000
,
0003
0020
0000
0000
,
0000
0000
0000
0030
,
0000
0000
0000
0010
,
0000
1000
0000
0001
,
0000
0100
0000
0000
,
0000
1001
0110
0110
,
0000
0000
0000
0100
,
0000
0001
0000
0100
,
0000
0100
0000
0000
,
0000
0110
0110
1001
,
0000
0000
0000
0100
,
0000
0001
0000
1000
,
0000
0010
0000
0000
,
0000
1001
0110
1001
,
0000
0000
0000
0010
,
0000
0100
0000
1000
,
0000
0020
0000
0030
,
0000
0002
0000
0000
,
0003
2000
0000
0000
,
0000
0000
0000
0000
,
3000
2002
0000
0000
,
3003
0000
0000
0000
,
0000
1002
0000
0003
0000
0100
0000
0000
,
0000
0001
0000
0000
0000
0100
0000
0010
,
0000
1000
0000
0000
0000
0001
0000
0000
,
0000
0200
0000
0300
0000
0000
0000
0010
,
0000
0120
0000
0030
0000
1000
0000
0000
,
0000
0100
0000
0000
0000
0010
0000
0000
,
0000
1000
0000
0000
0000
0001
0000
0000
,
0000
1001
0000
0000
0000
0000
0000
0000
,
0000
0100
0000
0000
0000
0001
0000
0000
,
0000
0010
0000
0000
0000
1000
0000
0100
,
0000
0200
0000
0300
0000
0100
0000
1000
,
0000
0020
0000
0030
0000
0010
0000
1000
,
0000
0001
0000
0000
0000
0100
0000
0000
,
0000
1000
0000
0000
0000
0010
0000
0000
,
0000
0200
0000
0300
0000
0100
0000
0001
,
0000
0000
0000
1000
0000
0000
0000
0000
,
0000
1001
0000
0000
0000
0000
0000
0000
,
0000
1000
0000
0000
0000
0010
0000
0000
,
0000
0200
0000
0000
0000
0300
0000
0000
,
0000
0000
0000
0000
0000
0001
0000
0100
,
0000
1001
0000
0000
0000
0000
0000
0000
,
0000
1000
0000
0000
0000
0001
0000
0000
,
0000
0100
0000
0000
0000
1000
0000
0000
,
0000
2000
0000
0000
0000
0000
0000
3000
,
0000
0000
0000
0000
0000
0020
0000
0030
,
0000
0200
0000
0300
0000
2000
0000
3000
,
0000
0002
0000
0000
0000
0000
0000
0000
,
0000
0000
0000
0000
,
0000
1003
0000
0000
0000
0100
0000
0000
,
0000
1000
0000
0000
0000
1000
0000
0000
,
0000
1000
0000
0000
0000
0100
0000
0000
,
0000
0001
0000
0010
0000
0100
0000
0000
,
0000
1000
0000
0100
0000
0010
0000
0000
,
0000
0200
0000
0000
0000
0000
0000
0000
,
0000
0300
0000
0000
0000
0000
0000
0000
,
0000
0000
0000
0000
,
0000
1000
0000
0000
0000
0010
0000
0000
,
0000
1001
0000
0110
0000
1001
0000
0110
,
0000
0000
0000
0000
,
0000
0000
0000
0000
,
0000
1000
0000
0001
0000
0100
0000
0000
,
0000
0001
0000
1000
0000
0100
0000
0000
,
0000
1000
0000
0000
0000
0100
0000
0000
,
0000
0001
0000
0000
0000
0010
0000
0000
,
0000
1000
0000
0100
0000
0001
0000
0100
,
0000
1000
0000
0100
0000
0001
0000
0100
,
0000
1000
0000
0000
0000
0000
0000
0000
,
0000
0000
0000
0000
,
0000
0010
0000
0001
0000
0100
0000
1000
,
0000
0010
0000
0001
0000
0100
0000
1000
,
0000
0000
0110
0000
0000
1001
0000
0000
0110
0000
0000
0000
0000
0000
0000
0000
,
0000
0000
0000
0000
,
0000
0010
0000
1000
0000
0010
0000
0000
,
0000
0010
0000
0000
0000
0010
0000
0000
,
0000
1000
0000
0000
0000
0001
0000
0001
,
0000
1001
0000
0000
0000
0000
0000
0000
,
0000
0010
0000
0001
0000
0010
0000
0000
,
0000
0010
0000
0000
0000
0010
0000
0000
,
0000
0001
0000
0000
0000
1000
0000
1000
,
0000
1001
0000
0000
0000
0000
0000
1001
,
0000
0001
0000
0000
0000
1000
0000
0000
,
0000
0010
0000
0000
0000
2000
0000
3000
,
0000
1000
0000
0000
0000
0001
0000
0000
,
0000
0100
0000
0000
0000
0002
0000
0003
,
0000
0010
0001
0010
0000
0001
0000
0001
,
0000
0100
1000
0100
0000
1000
0000
1000
,
0000
2002
0000
0000
0000
0000
0000
3003
,
0000
0000
0000
0000
0000
0000
0000
1001
,
0000
0001
0000
0000
0000
1000
0000
0000
,
0000
0010
0000
0000
0000
2000
0000
3000
,
0000
1000
0000
0000
0000
0001
0000
0000
,
0000
0100
0000
0000
0000
0002
0000
0003
,
0000
0200
0000
0000
0000
0300
0000
0000
,
0000
0001
0000
0001
0000
1000
0000
1000
,
0000
0020
0000
0000
0000
0000
0000
0030
,
0000
0000
0000
0000
,
0000
0000
0000
1000
0000
0000
0000
0001
,
0000
1000
0000
0001
0000
1001
0000
0000
,
0000
0000
0000
0000
,
0000
1000
0000
0100
0000
0010
0000
0000
,
1010
0000
0011
0000
,
0001
0100
0000
1100
,
0000
0101
0000
0001
,
0100
1000
0000
1000
,
0100
0001
0000
0001
,
0010
0000
1000
0000
0000
0100
0000
0010
,
0000
0001
0100
0010
0000
0100
0000
0010
,
0000
1000
0001
0010
0000
0100
0000
1000
,
0000
1000
0100
0010
0000
0100
0000
1000
,
0000
0001
1000
0001
0000
0100
0000
0001
,
0000
0010
0100
1000
0000
0100
0000
0010
,
0000
0001
0100
0010
0000
1000
0000
0001
,
0000
0100
0010
0100
0000
0010
0000
0100
,
0000
1000
0010
0100
0000
1000
0000
0001
,
0010
0100
1000
0000
0001
0000
1001
0000
,
0000
0010
0100
0001
0000
1000
0000
0001
,
0100
0010
1000
0000
0010
0000
0110
0000
,
0000
0010
0001
0100
0000
0010
0000
1000
,
0100
0010
0001
0000
1000
0000
1010
0000
,
0000
1000
0001
0000
0010
0000
0011
0000
,
0000
1000
0010
0000
0100
0000
2002
0000
,
0000
0000
3003
0000
0000
0000
1000
1000
,
0000
0001
0001
0000
0100
0100
0000
0000
;

//---------------dance-single - ----------------
#NOTES:
     dance-single:
     :
     Medium:
     11:
     :
0000
0000
0000
0000
,
0000
0000
0000
0000
,
0000
0000
0000
0000
,
0000
0000
0000
0000
,
0100
1000
0001
0000
,
0100
1000
0001
0000
,
2000
0000
0001
3000
,
0200
0000
0001
0300
,
0020
0000
1000
1030
,
0200
0001
0001
0300
,
1001
0000
0000
0000
1000
0000
0001
0100
,
0010
0000
0002
1003
,
0200
1000
0001
0300
,
0020
1000
0001
0030
,
2000
3001
0002
1003
,
0200
0310
0020
0130
,
0011
0000
1100
0000
,
0020
0030
0200
0300
,
0001
0010
0000
0010
0100
0000
0100
1000
,
0000
1000
0002
0000
0000
0000
0000
0000
,
0000
0000
0000
0000
,
0000
0000
0000
0000
,
0000
0000
0000
0000
,
0003
1001
1010
0010
,
0100
0000
0001
0100
0010
0000
1100
0000
,
1001
0000
0110
0001
0100
0000
0010
0000
,
0100
0000
0010
1000
0001
0000
2000
0000
,
3100
0000
0110
0001
1000
0000
0010
0000
,
1000
0000
0010
1000
0001
0000
0100
0000
,
0001
0000
0110
0001
0010
0000
0100
0000
,
0010
0100
1000
0010
,
0001
0110
0001
1001
,
0100
0000
0020
0000
1030
0000
0001
0100
,
0001
0000
0020
0000
0031
0000
1000
0100
,
1000
0000
0002
0000
0013
0000
1000
0010
,
1000
0200
0000
0000
,
0000
0020
0000
0000
,
0330
2000
0100
0100
,
3100
0202
0000
0000
,
0303
0200
0300
0100
,
1000
1200
0300
0100
,
0001
0000
0201
0000
0000
0302
0000
0000
,
0013
0100
1000
0010
,
1001
1000
1100
0010
,
0000
0001
0011
0100
,
0000
0000
0000
0000
0010
0000
0000
0000
1000
0000
0000
0000
0010
0000
0000
0100
,
0000
0000
0001
0000
1000
0000
0000
0100
0000
0000
0010
0000
0001
0000
0000
0000
,
1001
0200
0300
0100
,
1000
0020
0030
0010
,
0100
0000
0200
0000
0000
0302
0000
0000
,
0103
2000
3000
0002
,
0003
0001
0011
0100
,
1000
1100
0010
0001
,
0011
0100
0010
0100
,
0110
0000
1000
0000
0001
0000
1000
0001
,
1000
0001
2000
0000
0000
0000
0000
0000
,
0000
0000
0000
0000
,
3000
0000
0000
0000
1000
0000
0001
0000
1000
0000
0001
0000
0100
0000
0000
0010
,
0000
2002
0000
0000
0000
0000
0000
0000
,
3003
0110
0000
0000
0001
0100
0000
0010
,
0000
1000
0000
0010
0000
0100
0000
0001
,
0000
1000
0100
1000
0000
0001
0000
0100
,
0001
0100
0000
0000
0000
0001
0000
0011
,
0000
0110
0000
0000
0000
1000
0100
1000
,
0000
0001
0100
0001
0000
0100
0000
0000
,
0010
1000
0000
0001
0000
0100
0000
0110
,
0000
1001
0000
0000
0000
0000
0000
0000
,
0000
0200
0000
0300
0000
2000
0000
3000
,
0000
0002
0000
0003
0000
0100
0000
1000
,
0000
0001
0000
0000
0001
0001
0000
0100
,
0000
1000
0000
0000
1000
1000
0000
0010
,
0000
0210
0000
0300
0000
0002
0000
0003
,
0000
0020
0000
0030
0000
0100
0000
1000
,
0000
0010
0000
0000
0010
0010
0000
0001
,
0000
0100
0000
0200
0000
0000
0000
0300
,
0000
0002
0000
0000
0003
0000
0000
0001
,
0000
2000
0000
0000
3000
0200
0000
0000
,
0300
0020
0000
0000
0030
0000
0000
0010
,
0000
0010
0000
0100
0000
0100
0010
1000
,
0000
1001
0000
0000
0000
1000
0100
0010
,
0100
2000
0000
0000
3000
0002
0000
0000
,
0003
0200
0000
0300
0000
0020
0000
0030
,
0000
2002
0000
0000
0000
0000
0000
3003
,
0000
0020
0000
0130
0000
0200
0000
0301
,
0000
0002
0000
1003
0000
2000
0000
3001
,
0000
0002
0000
0000
0000
0000
0000
0000
,
0000
0000
0000
0000
,
0000
1003
0000
0000
0000
1000
0000
0000
,
0000
0001
0000
0000
0000
0001
0000
0000
,
0000
1000
0000
0000
0000
0001
0000
0000
,
0000
0001
0000
0100
0000
0010
0100
1000
,
0000
0001
0001
0100
0000
0010
0010
1000
,
0000
0220
0000
0000
0000
0000
0000
0330
,
0000
2002
0000
0000
0000
0000
0000
0000
,
0000
0000
0000
0000
0000
0000
0000
3000
,
1000
1003
0000
0000
0000
0100
0000
0000
,
0000
0100
0000
0000
0000
0010
0000
0010
,
0000
0001
0000
0011
0000
0100
0000
1000
,
0000
0001
0000
0011
0000
0100
0000
1000
,
0000
0001
1000
0100
0100
0000
0001
0100
,
0100
0020
0000
0000
0000
0000
0000
0030
,
0000
1000
0000
1100
0000
0010
0000
0001
,
0000
1000
0000
1100
0000
0010
0000
0001
,
0000
1000
0010
0100
0100
0000
0001
0010
,
0010
0200
0000
0000
0000
0000
0000
0300
,
0000
1000
0000
0010
0000
1000
0000
0100
,
0000
0001
0000
0010
0000
0001
0000
0100
,
0000
1000
0000
0001
0000
0010
0000
0100
,
0000
0010
0000
0001
0000
1000
0000
0010
,
0000
0000
0100
0000
0000
0100
0000
0000
0100
0000
0000
0000
0000
0000
0000
0000
,
0000
0000
0000
0000
,
0000
1000
0000
0000
0000
0001
0000
0100
,
0000
0001
0000
0100
0000
1000
0000
0100
,
0000
1000
0000
0000
0000
0001
0000
0100
,
0000
0020
0000
0030
0000
0000
0000
1001
,
0000
1000
0000
0000
0000
0001
0000
0010
,
0000
0001
0000
0010
0000
1000
0000
0010
,
0000
0020
0000
0000
0000
0230
0000
0000
,
0000
0310
0000
0000
0000
0001
0000
1001
,
0000
0000
0000
0001
0000
0100
0000
1000
,
0000
1000
0000
0001
0000
2000
0000
3000
,
0000
0000
0000
1000
0000
0100
0000
0001
,
0000
0001
0000
1000
0000
0002
0000
0003
,
0000
1000
0000
0001
0000
0001
0010
0100
,
0000
0100
0000
0010
0000
0010
1000
0001
,
0000
2000
0000
0000
0000
0002
0000
3003
,
0000
0000
0000
0001
0000
1000
0000
1001
,
0000
0000
0000
1000
0000
0010
0000
0001
,
0000
0001
0000
1000
0000
0002
0000
0003
,
0000
0000
0000
0001
0000
0100
0000
1000
,
0000
1000
0000
0001
0000
2000
0000
3000
,
0000
0200
0000
0000
0000
0300
0000
0000
,
0000
2000
0000
0000
0000
3200
0000
0000
,
0000
0302
0000
0000
0000
0003
0000
0000
,
0000
0000
0000
1100
0000
0000
0000
1001
,
0000
0000
0000
0101
0000
0000
0000
1001
,
0000
0110
0000
1001
0000
0110
0000
0000
,
0000
0000
0000
0000
0000
0100
0000
0000
,
0000
0000
0000
0100
0000
0001
0000
0010
,
0100
1000
0001
0000
,
0000
0011
1000
0100
,
0001
0010
0100
1000
,
0001
0100
1000
0010
,
0100
0000
0001
0000
1000
0000
0010
0100
,
0001
0000
0010
0000
0100
0000
0100
0000
0000
0001
0000
0000
0010
0000
0000
0000
,
1000
0000
0001
0000
0100
0000
0010
0000
0000
1000
0000
0000
0010
0000
0000
0000
,
0001
0100
0010
0100
0001
0101
0000
1000
,
0100
1100
0000
1000
0010
0100
0001
1000
,
0001
0000
1001
0000
0000
0000
0001
0000
0000
1000
0000
0000
0010
0000
0000
0000
,
0001
0000
1000
0000
0100
0000
0010
0000
0000
0001
0000
0000
0010
0000
0000
0000
,
1000
0100
0010
0100
1000
1100
0000
0001
,
0100
0101
0000
0001
0010
0100
1000
0001
,
1000
0001
0010
0110
0000
0110
1000
0100
,
1000
0000
0010
0000
1001
0000
0000
1000
,
0100
0110
0001
0110
1000
0010
0100
0010
,
0001
0000
1000
0101
,
0000
0001
1000
0100
0001
0100
1000
0010
,
0100
0001
0011
0000
0110
0000
1100
0000
,
1001
0010
1010
0000
0110
0000
0101
0000
,
1001
0010
0011
0000
1001
0000
0220
0000
,
0000
0330
0000
0101
0000
0000
1000
0001
,
0000
0100
0010
0000
0100
1001
0000
0000
;

//---------------dance-single - ----------------
#NOTES:
     dance-single:
     :
     Hard:
     15:
     :
0000
0000
0000
0000
,
0000
0000
0000
0000
,
0000
0000
0000
0000
,
0000
0000
0000
0000
,
0020
0000
0001
0030
,
0200
0001
1000
0300
,
1002
0000
0100
0003
,
2001
0010
0010
3000
,
0200
0010
1000
0310
,
0021
0100
0001
0130
,
1001
0000
0000
1000
0100
0010
0001
0010
,
1100
0000
1010
0011
,
1000
0100
0000
0100
0010
0000
0000
0000
0100
0000
0001
0000
0100
0000
1000
0000
,
0010
0001
0010
0000
0101
0000
1010
0000
,
0001
0000
0100
0000
1000
0100
0010
0000
,
1000
0000
0010
0000
0001
0010
0100
0000
,
0010
0001
0010
0100
0010
1000
0010
0001
,
0100
1000
0100
0010
0100
0000
0001
0000
,
1000
0100
1000
0000
0000
0000
0100
0010
0100
0000
0000
0000
0001
0010
0001
0000
,
0000
0000
0100
0010
0200
0000
0000
0000
0000
0000
0000
0000
0000
0000
0000
0000
,
0000
0000
0000
0000
,
0300
0000
0010
0000
,
0010
0000
1000
0001
,
1001
0000
0000
0000
1000
0100
1000
0000
0001
0000
0010
0000
0101
0000
1000
0000
,
0010
0000
0100
0000
0001
0100
0001
0000
1000
0000
0010
0000
0100
0000
0001
0000
,
0101
0000
0000
0000
1000
0010
1000
0000
0100
0000
0010
0000
0001
0000
1000
0000
,
0011
0100
0002
1000
1000
0100
1003
0000
,
1001
0000
0000
0000
0010
0100
0010
0000
1000
0000
0001
0000
1100
0000
0010
0000
,
1000
0000
0100
0000
0010
0100
0010
0000
0001
0000
1000
0000
0100
0000
0010
0000
,
0110
0000
0000
0000
1000
0001
1000
0000
0010
0000
0001
0000
0100
0000
0010
0000
,
1001
0010
0200
0001
0001
0000
0310
0000
,
1001
0000
0000
0000
0001
0000
1000
0000
0010
0000
0000
0100
0000
0000
1000
0000
,
0010
0000
0000
0000
1000
0000
0001
0000
0100
0000
0000
0010
0000
0000
0001
0000
,
1000
0000
0000
0000
0010
0000
1000
0000
0001
0000
0000
0100
0000
0000
0010
0000
,
0001
0000
0000
0100
0000
0000
1000
0000
0010
0000
0000
0100
0000
0000
0001
0000
,
1000
0002
0100
0000
,
0103
2000
0100
0000
,
3100
0000
0101
0100
0010
0100
0000
0010
,
0100
0010
2020
0000
0000
0000
0000
0000
,
3030
0000
1100
0000
0100
0001
0100
0001
,
1100
0000
0011
0000
0010
1000
0010
1000
,
0011
0000
1010
0000
0000
0110
0000
0000
,
0101
0000
0000
0000
0010
0000
0000
0100
0000
0000
0100
0000
0010
0000
0000
0000
,
1001
0000
0100
1000
0100
0001
0100
0010
,
0110
0000
0011
0000
0100
0010
0110
0000
,
1100
0000
0000
0000
1000
0000
0000
0000
0100
0000
0000
0000
0001
0000
0000
0100
,
0000
0000
0010
0000
0010
0000
0000
1000
0000
0000
0001
0000
0100
0000
0000
0000
,
1001
0000
1010
0000
0010
0001
0010
0001
,
1010
0000
0101
0000
0100
1000
0100
1000
,
0101
0000
1010
0000
0010
1001
0010
0000
,
1010
0000
1001
0000
0000
0110
0110
0000
,
1001
0000
0011
0000
0000
0110
0000
0000
,
1100
0000
0100
0001
1000
0010
1000
0001
,
0100
0000
1010
0010
0100
0010
0001
0010
,
0100
0100
0010
1000
0001
0100
0001
1000
,
0010
0100
0220
0000
0000
0000
0000
0000
,
0000
0000
0000
0000
,
0000
0000
0330
0000
1000
0000
0001
0000
1000
0000
0001
0000
0101
0000
0000
1010
,
0000
2002
0000
0000
0000
0000
0000
3003
,
0000
0102
0000
0000
0103
0010
0100
0001
,
0010
0100
1000
0001
0000
0001
0000
1000
,
0000
1000
0010
0100
0001
0000
1000
0010
,
1000
0000
0001
0000
0000
0010
0100
0000
0000
1000
0001
0000
0000
0000
0011
0000
,
0000
2100
0000
0000
3100
0010
0100
1000
,
0010
0100
0001
1000
0000
1000
0000
0001
,
0000
0001
0010
0100
1000
0000
0001
0010
,
0001
2000
0000
0100
0000
0100
0000
3100
,
0000
1000
1000
0000
0001
0100
0100
0000
,
0001
1000
0000
0010
0100
0001
0010
0001
,
1000
0200
0000
0000
0310
0100
1000
0010
,
0100
0000
0010
0000
0000
0010
0100
0000
0000
0100
0001
0000
0000
0001
1000
0000
,
0000
1001
0001
0000
0100
1000
1000
0000
,
0100
0001
0000
0000
0010
0001
1000
0100
,
0010
0200
0000
0000
1300
0010
0100
0001
,
1000
0100
0000
0020
0000
0000
0000
0030
,
0000
1100
0000
0001
0010
0100
1000
0010
,
0000
0100
0001
0010
0000
1010
0000
0101
,
0000
1000
0000
1010
0000
1000
0000
1100
,
0000
0001
0100
0010
1000
0100
1000
0100
,
0000
0011
0000
0010
0000
1000
0000
0010
,
0000
1100
0000
0110
0000
0011
0000
0000
,
0011
0022
0000
0033
1100
2200
0000
3300
,
1001
2002
0000
0000
0000
0000
0000
3003
,
0000
0200
0000
0300
0010
0020
0000
0030
,
1000
2000
0000
3000
0001
0002
0000
1003
,
0000
2002
0000
0000
0000
0000
0000
0000
,
0000
0000
0000
0000
0000
0000
0000
3003
,
0000
0001
0010
0100
1000
1000
0000
0010
,
0000
0001
0000
1000
0010
0001
0010
1000
,
0000
1000
0100
0010
0001
0001
0000
0100
,
0000
0100
0000
0100
0001
0100
1000
0100
,
0000
0100
0010
0100
0001
0100
1000
0100
,
0001
0220
0000
0000
0000
0000
0000
0330
,
0000
2002
0000
0000
0000
0000
0000
3000
,
0000
0200
0000
0000
0000
0000
0000
0003
,
1300
0100
0000
0000
0000
0010
0000
0000
,
0000
0001
0000
1000
0000
0101
0000
1100
,
0000
0010
0001
0100
0001
1000
0010
1000
,
0100
0010
0100
1000
0001
0100
0010
0100
,
0000
0001
1000
0001
0010
0100
1000
0010
,
1000
0001
0100
0010
1000
0100
0010
0001
,
0000
1000
0100
0010
0100
1000
0001
0010
,
0001
0100
0010
1000
0100
0010
0001
0100
,
0000
0010
1000
0001
0010
0100
1000
0010
,
0100
0001
0010
0100
0010
0001
1000
0001
,
0000
1000
0000
0010
0000
0100
0000
0001
,
0000
1000
0000
0010
0000
0100
0000
0001
,
0000
1000
0100
0010
0001
0100
0010
1000
,
0100
1000
0001
1000
0010
0100
0010
1000
,
0001
0000
0010
0000
0000
0100
0000
0000
1000
0000
0000
0000
0000
0000
0000
0000
,
0000
0000
0000
0000
,
0000
1000
0000
0101
0000
0010
0100
1000
,
0000
0001
0000
1100
0000
0010
0100
0001
,
0000
0010
0000
1010
0000
0100
0000
0101
,
0000
1000
0100
0010
0001
1000
0100
0010
,
0001
1000
0000
0011
0000
0100
0010
1000
,
0000
0001
0000
1010
0000
0100
0010
0001
,
0000
0002
0000
1003
0000
0020
0000
0130
,
0000
0001
0110
0000
1100
0001
0000
1001
,
0000
0100
0000
1100
0000
0010
0000
0011
,
0000
0100
0000
1001
0000
0010
0010
0110
,
0000
0010
0000
1010
0000
0100
0000
0101
,
0000
0010
0000
1001
0000
0100
0100
0110
,
0000
1000
0100
0001
0000
0001
0010
0100
,
0000
1000
0100
0010
0001
1000
0010
0100
,
0010
2001
0000
0000
0001
0002
0000
3003
,
0000
0000
0000
0001
0000
1000
0000
1001
,
0000
0100
0000
0101
0000
0010
0000
1010
,
0000
0100
0000
1001
0000
0010
0010
0110
,
0000
0010
0000
0011
0000
0100
0000
1100
,
0000
0010
0000
1001
0000
0100
0100
0110
,
0000
1000
0100
1000
0010
0100
0001
0010
,
0001
0002
0000
0023
0000
0230
0000
2300
,
0000
0000
3001
0000
0000
0000
0010
0000
0000
0000
0001
1000
0000
0100
0000
0000
,
0100
0000
0000
0010
0000
0000
0100
0000
0010
0000
0001
1000
0000
0100
0000
0000
,
0100
0000
0000
0010
0000
0000
0001
0000
0100
0000
0000
0010
0000
0000
1000
0000
,
0100
0001
0100
1000
0100
0010
0100
0010
,
0000
1001
0000
0001
0000
0100
0000
0000
,
0000
1001
0000
0100
0000
1001
0000
0100
,
0001
1000
1001
0000
,
0100
1001
0010
1000
,
0100
0000
0011
0000
0100
1000
0001
0000
,
0100
1010
0100
0001
,
0010
0000
0000
1000
0100
0000
0000
0000
0010
0000
0000
0001
0100
0010
0100
0010
,
0100
0000
0000
0001
1000
0000
0101
0000
0000
1100
0000
0000
0101
0000
0000
0000
,
0001
0000
0100
0000
0001
0000
1010
0000
0000
0011
0000
0000
1010
0000
0000
0000
,
1000
0000
0100
0000
1000
0000
0010
0000
0100
0001
0000
0100
0010
0000
1000
0000
,
0100
0010
0000
0100
1000
0000
0001
0010
0001
0010
0100
1000
0100
1000
0001
0010
,
0001
0010
0100
1000
0001
0010
0100
0000
0000
1100
0000
0000
0101
0000
0000
0000
,
0010
0000
0100
0000
1000
0000
1100
0000
0000
0101
0000
0000
1100
0000
0000
0000
,
0001
0000
1000
0000
0100
0000
0010
0000
0001
1000
0000
0100
1000
0000
0010
0000
,
1000
0001
0000
0100
0001
0000
1000
0010
1000
0010
0100
0001
0100
0001
1000
0010
,
1000
0010
0100
0001
1000
0100
0010
0000
0000
0110
0000
0000
1100
0000
0000
0000
,
1000
0000
0100
0000
1000
0000
0101
0000
0000
0110
0000
0000
0101
0000
0000
0000
,
0010
0000
1000
0000
0001
0000
0010
0000
0100
1000
0000
0001
0100
0000
0010
0000
,
0100
0001
0000
1000
0100
0000
1000
0001
1000
0001
0100
0010
0100
0010
1000
0001
,
1000
0001
0100
0010
1000
0001
1000
0000
0100
0000
1000
0000
0100
0000
0001
0000
,
0010
1000
0010
0001
0100
0010
0001
0010
,
1000
0000
0100
0000
0010
0000
1000
0000
0010
0001
0010
0001
1000
0010
1000
0010
,
0100
0001
0100
0001
1000
0100
1000
0100
2000
0000
0000
3002
0000
0000
0103
0001
,
0010
0100
1000
0001
0100
0010
1000
0002
0000
0000
0000
0000
0013
0000
0001
1000
,
0001
0000
0110
0000
1001
0000
0000
0000
0100
0020
0200
0000
0000
0000
0000
0000
,
0000
0000
0330
0000
;
