#TITLE:Good Times;
#ARTIST:Chic;
#BANNER:Good Times.png;
#BACKGROUND:Good Times-bg.png;
#CDTITLE:./CDTITLES/DanceDanceRevolution HOTTEST PARTY 3.png;
#MUSIC:Good Times.ogg;
#SAMPLESTART:47.131;
#SAMPLELENGTH:15;
#DISPLAYBPM:110;
#BPMS:0=110.3,24=109.3,30=111.6,35=111.2,40=110.7,54=111.4,64=111,84=109.4,95=111.3,106=110.4,120=110.7,139=110.8;

//---------------dance-single - ----------------
#NOTES:
     dance-single:
     :
     Beginner:
     1:
     :
0000
0000
0000
0000
,
0000
0000
0000
0000
,
0000
0000
0000
0000
,
0000
0000
0000
0000
,
0010
0000
0000
0000
,
1000
0000
0000
0000
,
0001
0000
0000
0000
,
0001
0000
0000
0000
,
1000
0000
0000
0000
,
1000
0000
0000
0000
,
0001
0000
0000
0000
,
0001
0000
0000
0000
,
1000
0000
0000
0000
,
1001
0000
0000
0000
,
0010
0000
0000
0000
,
0010
0010
0000
0000
,
0100
0000
0000
0000
,
0100
0100
0000
0000
,
0000
1000
1000
0000
,
0000
0001
0001
0000
,
1000
0000
1000
0000
,
0001
0000
0001
0000
,
1001
0000
0000
0000
,
1000
1000
0000
0000
,
1001
0000
0000
0000
,
0001
0001
0000
0000
,
1001
0000
0000
0000
,
0010
0010
0000
0000
,
1001
0000
0000
0000
,
0100
0100
0000
0000
,
1001
0000
0000
0000
,
1000
1000
0000
0000
,
1001
0000
0000
0000
,
0001
0001
0000
0000
,
1001
0000
0000
0000
,
0010
0010
0000
0000
,
1001
0000
0000
0000
,
0100
0100
0000
0000
,
1001
0000
0000
0000
,
1000
0000
0000
0000
,
0001
0000
0000
0000
;

//---------------dance-single - ----------------
#NOTES:
     dance-single:
     :
     Easy:
     3:
     :
0000
0000
0000
0000
,
0000
0000
0000
0000
,
0000
0000
0000
0000
,
0000
0000
0000
0000
,
0100
0000
0100
0000
,
0001
0100
0001
1000
,
0100
0000
0010
0000
,
0001
0001
0000
0000
,
1000
0000
0100
0000
,
1000
1000
0000
0000
,
0001
0000
0010
0000
,
0001
0001
0010
0000
,
0001
0000
0100
0000
,
0010
0000
1001
0000
,
0001
0100
0010
0000
,
0100
0100
0100
0000
,
0010
0100
1000
0000
,
0100
0000
1001
0000
,
1000
0001
1000
0000
,
0010
0100
0010
0000
,
1000
1000
0001
0001
,
1000
1001
0000
0000
,
0001
1000
1001
0000
,
1000
0000
0001
0100
,
1000
0001
1001
0000
,
0010
0010
0010
0000
,
0001
1000
1001
0000
,
0001
0000
0100
0001
,
1000
0001
1001
0000
,
0100
0000
0100
0000
,
0100
0010
0110
0000
,
1000
0000
0001
0100
,
0010
0100
0110
0000
,
0010
0010
0010
0000
,
0100
0010
0110
0000
,
0001
0000
0100
0001
,
0010
0100
0110
0000
,
0100
0000
0100
0000
,
1001
0000
0000
0000
,
0001
0000
1000
0000
,
1001
0000
0000
0000
;

//---------------dance-single - ----------------
#NOTES:
     dance-single:
     :
     Medium:
     5:
     :
0000
0000
0000
0000
,
0000
0000
0000
0000
,
0000
0000
0000
0000
,
0000
0000
0000
0000
,
0100
0000
0100
0000
,
0001
0001
0100
0000
0001
0100
0100
0010
,
1000
0100
0010
0000
,
0001
0000
0100
0000
0010
0010
0010
0000
,
1000
0001
0100
0000
,
0010
0000
1000
0000
0100
0100
0100
0000
,
0001
0100
0010
0000
,
1000
0000
0100
0000
0010
0010
0010
0000
,
0001
1000
0100
0000
,
0010
0000
0001
0001
1000
0000
0000
0000
,
0001
0010
0100
0000
,
1000
0100
0100
0100
0000
0000
0000
0000
,
0010
0001
1000
0000
,
0001
0000
0100
0010
1001
0000
0000
0000
,
1000
0000
1000
0000
0100
0010
0001
0000
,
0001
1000
0001
0000
,
1000
0001
0100
0010
,
1000
0001
1001
0000
0000
0000
0000
0000
,
0001
0100
0101
0000
,
1000
0010
0010
0000
0001
0100
0100
0000
,
1000
0100
1100
0000
,
0001
0010
0001
0000
,
0001
0100
0101
0000
,
0001
0001
0100
0000
0100
0100
0001
0000
,
1000
0100
1100
0000
,
0100
0000
0100
0000
,
0001
0010
0011
0000
,
1000
0100
0100
0000
0001
0010
0010
0000
,
1000
0010
1010
0000
,
0001
0100
0001
0000
,
0001
0010
0011
0000
,
0001
0001
0010
0000
0010
0010
0000
0000
,
1000
0010
1010
0000
,
0010
0000
0010
0000
,
1001
0000
1000
0000
,
0001
0000
1000
0000
,
1001
0000
0000
0000
;

//---------------dance-single - ----------------
#NOTES:
     dance-single:
     :
     Hard:
     7:
     :
0000
0000
0000
0000
,
0000
0000
0000
0000
,
0000
0000
0000
0000
,
0000
0000
0000
0000
,
0100
0100
0100
0000
,
0010
0001
0010
0000
0100
0000
0010
0000
0001
0000
0100
0000
0010
1000
0010
0000
,
1000
0000
0100
0000
0010
0100
1000
0000
,
0001
0000
0100
0000
0010
0100
0001
1000
,
0100
0000
1000
0100
1000
0000
0001
0000
,
0100
0010
0100
0000
0001
1000
0100
0000
,
0001
0000
0100
0000
0010
0100
0001
0000
,
1000
0000
0100
0000
0010
0100
1000
0001
,
0100
0000
0001
0100
0001
0000
1000
0000
,
0100
0010
0000
0010
1000
0001
0100
0000
,
0001
0000
0010
0000
0100
0010
0001
0000
,
1000
0100
0000
0100
1000
0001
0100
0000
,
0010
0000
0001
0010
0001
0000
1000
0000
,
0001
0100
0100
0010
1001
0000
0000
0000
,
0000
0000
1000
0000
1000
0000
0100
0000
0100
0000
0010
0001
0000
0000
0001
0000
,
0010
0000
0100
0000
0100
0000
1000
0000
1000
0000
0001
0100
0000
0000
0000
0000
,
1000
1000
0001
0001
0100
0100
0010
0010
,
1000
0001
1001
0000
0000
0000
0000
0000
,
0010
1100
0010
0101
,
1000
0100
1000
0000
0010
0000
0100
0000
0001
0000
0100
0000
0010
1000
0010
0000
,
0100
1010
0100
0011
,
0001
0000
0000
0000
0010
0000
0000
0000
0100
0000
0000
0000
1000
0100
1000
0000
,
0010
1100
0010
0101
,
0001
0100
0001
0000
0010
0100
0010
0000
1000
0000
1000
0000
0010
0000
0010
0000
,
0100
1010
0100
0011
,
0100
0000
0100
0000
,
0010
1100
0010
0101
,
1000
0100
1000
0000
0010
0000
0100
0000
0001
0000
0100
0000
0010
1000
0010
0000
,
0100
1010
0100
0011
,
0001
0000
0000
0000
0010
0000
0000
0000
0100
0000
0000
0000
1000
0100
1000
0000
,
0010
1100
0010
0101
,
0001
0100
0001
0000
0010
0100
0010
0000
1000
0000
1000
0000
0010
0000
0010
0000
,
0100
1010
0100
0011
,
0100
0000
0100
0000
,
1001
0000
1000
0000
,
0001
0000
1000
0000
,
1001
0000
0000
0000
;
