#TITLE:Enjoy The Silence;
#ARTIST:Depeche Mode;
#BANNER:Enjoy The Silence.png;
#BACKGROUND:Enjoy The Silence-bg.png;
#CDTITLE:./CDTITLES/DanceDanceRevolution HOTTEST PARTY 3.png;
#MUSIC:Enjoy The Silence.ogg;
#SAMPLESTART:59.481;
#SAMPLELENGTH:15;
#DISPLAYBPM:113;
#BPMS:0=112.95;

//---------------dance-single - ----------------
#NOTES:
     dance-single:
     :
     Beginner:
     1:
     :
0000
0000
0000
0000
,
0000
0000
0000
0000
,
0000
0000
0000
0000
,
0000
0000
0000
0000
,
0000
0000
0000
0000
,
0001
0000
0000
0000
,
1000
0000
0000
0000
,
0001
0000
0000
0000
,
1000
0000
0000
0000
,
0010
0000
0000
0000
,
0010
0000
0000
0000
,
1000
0000
1000
0000
,
1000
0000
0000
0000
,
0010
0000
0000
0000
,
0010
0000
0000
0000
,
0001
0000
0001
0000
,
0001
0000
0000
0000
,
0000
0000
0000
0000
,
1000
1000
1000
0000
,
0001
0001
0001
0000
,
1000
0000
0000
0000
,
0010
0000
0000
0000
,
0001
0000
0000
0000
,
0010
0000
0000
0000
,
0100
0000
0000
0000
,
0100
0000
0000
0000
,
0100
0000
0000
0000
,
0100
0000
0000
0000
,
0010
0000
0000
0000
,
0010
0000
0000
0000
,
1000
0000
1000
0000
,
1000
0000
1000
0000
,
0010
0000
0000
0000
,
0010
0000
0000
0000
,
0001
0000
0001
0000
,
0001
0000
0001
0000
,
0010
0000
0000
0000
,
0010
0000
0000
0000
,
1000
0000
1000
0000
,
1000
0000
1000
0000
,
0010
0000
0000
0000
,
0010
0000
0000
0000
,
0001
0000
0001
0000
,
0001
0000
0001
0000
,
0000
0000
0000
0000
,
1000
0000
0000
0000
,
0001
0000
0000
0000
;

//---------------dance-single - ----------------
#NOTES:
     dance-single:
     :
     Easy:
     2:
     :
0000
0000
0000
0000
,
0000
0000
0000
0000
,
0000
0000
0000
0000
,
0000
0000
0000
0000
,
0000
0000
0000
0000
,
0001
0000
1000
0000
,
1000
0000
0001
0000
,
0001
0001
1000
0000
,
0001
0001
1000
0000
,
1000
0000
0010
0000
,
1000
0000
0100
0000
,
0001
0100
0001
0000
,
0010
0000
0010
0000
,
0001
0000
0010
0000
,
0001
0000
0100
0000
,
1000
0001
1000
0000
,
0001
0001
1000
1000
,
2000
0000
0000
3000
,
0001
1000
0001
0001
,
1000
0001
1000
1000
,
0001
0000
1000
0001
,
1000
0000
1000
0000
,
1000
0000
0001
1000
,
0001
0000
0001
1000
,
2000
0000
3000
0000
,
0002
0000
0003
0000
,
2000
0000
3000
0000
,
0002
0000
0003
0000
,
1000
1000
0010
0000
,
1000
1000
0100
0000
,
0001
1000
0001
0000
,
0010
0000
0010
0000
,
0001
0001
0010
0000
,
0001
0001
0100
0000
,
1000
0001
1000
0000
,
0001
0001
1000
1000
,
0001
0001
0010
0000
,
0001
0001
0100
0000
,
1000
0001
1000
0000
,
0010
0000
0010
0000
,
1000
1000
0010
0000
,
1000
1000
0100
0000
,
0001
1000
0001
0000
,
1000
1000
0001
0001
,
0002
0000
0000
0003
,
1000
0000
0000
0000
,
0100
0000
0000
0000
;

//---------------dance-single - ----------------
#NOTES:
     dance-single:
     :
     Medium:
     5:
     :
0000
0000
0000
0000
,
0000
0000
0000
0000
,
0000
0000
0000
0000
,
0000
0000
0000
0000
,
0000
0000
0000
0000
,
0001
0100
0001
0100
,
0010
0100
0010
0010
,
0100
0001
1000
0000
,
0100
1000
0001
0000
,
0001
1000
0100
1100
,
0010
0100
0001
0101
,
0010
0010
0100
0100
,
1000
0001
0100
0000
0110
0000
0000
0000
,
1000
0001
0100
0101
,
0010
0100
1000
1100
,
0010
0010
0100
0100
,
0001
1000
0001
0000
1000
0001
1000
0000
,
0002
0000
2000
3003
,
0001
0010
0100
0000
0010
0100
1000
0000
,
0010
0100
0001
0000
1000
0010
0100
0000
,
0001
0010
0100
0010
,
0001
0001
1000
0001
,
1000
0010
0100
0010
,
1000
1000
0001
1000
,
0001
0100
0001
0010
,
0001
1000
0100
0100
,
1000
0100
1000
0010
,
1000
0001
0100
0100
,
0001
0010
0100
1100
,
0010
1000
0001
0101
,
0010
0010
0100
0001
,
1000
0001
1000
0000
0110
0000
0000
0000
,
0100
0001
0100
0101
,
1000
0100
1000
1100
,
0010
0001
0100
0100
,
0001
1000
0001
0000
1000
0000
1001
0000
,
1000
0010
0100
0101
,
0010
0001
1000
1100
,
0010
0010
0100
1000
,
0001
1000
0001
0000
0110
0000
0000
0000
,
0100
1000
0100
1100
,
0001
0100
0001
0101
,
0010
1000
0100
0100
,
1000
0001
1000
0000
0001
0000
1001
0000
,
2000
0000
0002
3003
,
1000
0000
0001
0000
,
0010
0000
0100
0000
;

//---------------dance-single - ----------------
#NOTES:
     dance-single:
     :
     Hard:
     7:
     :
0000
0000
0000
0000
,
0000
0000
0000
0000
,
0000
0000
0000
0000
,
0000
0000
0000
0000
,
0000
0000
0000
0000
,
0001
0000
0100
0000
0001
1000
0100
1000
,
0010
0000
0100
0001
1000
0001
0100
0000
,
0001
0100
1000
0010
,
0001
0100
1000
0010
,
1000
0100
1000
0100
0010
0000
0011
0000
,
0001
0100
0010
0100
0001
0000
1100
0000
,
0010
0001
0010
0000
0100
1000
0100
0000
,
1000
0001
1000
0000
0100
0010
0100
0000
,
0001
0100
0001
0100
0010
0000
1010
0000
,
1000
0100
0010
0100
1000
0000
0101
0000
,
0010
1000
0010
0000
0100
0001
0100
0000
,
0010
1010
0100
0101
,
2010
0000
0100
3100
,
0001
0000
0100
0000
0010
1000
0010
1000
0100
0000
0010
0000
0001
0100
0001
0100
,
0010
0000
1000
0000
0100
0010
0100
0010
0001
0000
0100
0000
0001
1000
0001
1000
,
0001
0100
1000
0100
,
0001
0100
0100
0000
1000
0000
0001
0000
,
1000
0100
0001
0100
,
1000
0100
0100
0000
0001
0000
1000
0000
,
0010
1000
0001
1000
,
0100
0010
0010
0000
1000
0000
0100
0000
,
0010
0001
1000
0001
,
0100
0010
0010
0000
0001
0000
0100
0000
,
1000
0100
1000
0100
0010
0001
0010
0000
,
0001
0100
0010
0100
0001
1000
0100
0000
,
0010
0001
0010
0000
0100
1000
0001
0000
,
1000
0001
0100
0000
0100
0010
0100
0000
,
0001
0100
0001
0100
0010
0000
0110
0000
,
1000
0100
0110
0000
1000
0000
0101
0000
,
0010
1000
0001
0000
0100
0001
0100
0000
,
0010
1010
1000
0101
,
0001
0100
0001
0100
0010
1000
0010
0000
,
1000
0100
0010
0100
1000
0001
0100
0000
,
0010
1000
0010
0000
0100
0001
1000
0000
,
0001
1000
0100
0000
0100
0010
0100
0000
,
1000
0100
1000
0100
0010
0000
0110
0000
,
0001
0100
0110
0000
0001
0000
1100
0000
,
0010
0001
1000
0000
0100
1000
0100
0000
,
0010
0011
0001
1100
,
0012
0000
0100
0103
,
0010
0000
1000
0010
,
0001
0000
1000
0100
;
