#TITLE:Detroit Rock City;
#ARTIST:Kiss;
#BANNER:Detroit Rock City.png;
#BACKGROUND:Detroit Rock City-bg.png;
#CDTITLE:./CDTITLES/DanceDanceRevolution HOTTEST PARTY 3.png;
#MUSIC:Detroit Rock City.ogg;
#SAMPLESTART:43.197;
#SAMPLELENGTH:15;
#DISPLAYBPM:183;
#BPMS:0=182.68,19.667=174.5,27.667=178,36=183,52=182.4,67=181.9,84=182.4,98=183.8,130=167,131=183.2,148=182.6,163=182.3,179=166,180=180.4,200=182.2,211=183.9,228=182.9,251.66701=179,260=171.4,263=178,269.75=233.4,271=180.4,284=183.3;

//---------------dance-single - ----------------
#NOTES:
     dance-single:
     :
     Beginner:
     2:
     :
0000
0000
0000
0000
,
0000
0000
0000
0000
,
0000
0000
0000
0000
,
0000
0000
0000
0000
,
0000
0000
0000
0000
,
1000
0000
0000
0000
,
0000
0000
0000
0000
,
1000
0000
0000
0000
,
0000
0000
0000
0000
,
0001
0000
0000
0000
,
0001
0000
0000
0000
,
0001
0000
0000
0000
,
0001
0000
0000
0000
,
1000
0000
0000
0000
,
0000
0000
0000
0000
,
1000
0000
0000
0000
,
0000
0000
0000
0000
,
0001
0001
0000
0000
,
0000
0000
0000
0000
,
0010
0000
0000
0000
,
0010
0000
0000
0000
,
1000
0000
0000
0000
,
1000
0000
0000
0000
,
0001
0000
0000
0000
,
0001
0000
0000
0000
,
0001
0001
0000
0000
,
0000
0000
0000
0000
,
0010
0000
0000
0000
,
0010
0000
0000
0000
,
1000
0000
0000
0000
,
1000
0000
0000
0000
,
0001
0000
0000
0000
,
0001
0000
0000
0000
,
1000
0000
1000
0000
,
0001
0000
0000
0000
,
0001
0000
0001
0000
,
1000
0000
0000
0000
,
0010
0000
0000
0000
,
0000
0000
0000
0000
,
0100
0000
0000
0000
,
0000
0000
0000
0000
,
1000
0000
1000
0000
,
0001
0000
0000
0000
,
0001
0000
0001
0000
,
1000
0000
0000
0000
,
0001
0001
0000
0000
,
0000
0000
0000
0000
,
0010
0000
0000
0000
,
0010
0000
0000
0000
,
1000
0000
0000
0000
,
1000
0000
0000
0000
,
0001
0000
0000
0000
,
0001
0000
0000
0000
,
0001
0001
0000
0000
,
0000
0000
0000
0000
,
0010
0000
0000
0000
,
0010
0000
0000
0000
,
1000
0000
0000
0000
,
1000
0000
0000
0000
,
0001
0000
0000
0000
,
0001
0000
0000
0000
,
1000
0000
1000
0000
,
0001
0000
0000
0000
,
1000
0000
0000
0000
,
0001
0000
0000
0000
,
1001
0000
0000
0000
,
0000
0000
0000
0000
,
0000
0000
0000
0000
,
1000
0000
1000
0000
,
0001
0000
0000
0000
,
1000
0000
0000
0000
,
0001
0000
0000
0000
,
1001
0000
0000
0000
;

//---------------dance-single - ----------------
#NOTES:
     dance-single:
     :
     Easy:
     3:
     :
0000
0000
0000
0000
,
0000
0000
0000
0000
,
0000
0000
0000
0000
,
0000
0000
0000
0000
,
0000
0000
0000
0000
,
2000
0000
0000
3000
,
0001
0000
1000
0000
,
2000
0000
0000
3000
,
0001
0000
0001
0000
,
2000
0000
3000
0000
,
2000
0000
3000
0000
,
0002
0000
0003
0000
,
0100
0000
0000
0000
,
0002
0000
0000
0003
,
1000
0000
0001
0000
,
0002
0000
0000
0003
,
1000
0000
1000
0000
,
0001
0001
0000
0000
,
0001
1000
0000
0000
,
0001
0100
0000
0000
,
1000
1000
0000
0000
,
1000
0000
0010
0000
,
0010
0000
0000
0000
,
0001
0000
0010
0000
,
0001
0000
0000
0000
,
0001
0001
0000
0000
,
0001
1000
0000
0000
,
0001
0100
0000
0000
,
1000
1000
0000
0000
,
1000
0000
0010
0000
,
0010
0000
0000
0000
,
0001
0000
0010
0000
,
0001
0000
0000
0000
,
0001
0001
1000
1000
,
0002
0000
0003
0000
,
0001
0001
1000
1000
,
0002
0000
0003
0000
,
1000
0000
0001
0000
,
1000
0000
0000
0000
,
0002
0003
2000
3000
,
0002
0000
0003
0000
,
1000
1000
0001
0001
,
2000
0000
3000
0000
,
1000
1000
0001
0001
,
2000
0000
3000
0000
,
0001
0001
0000
0000
,
0001
1000
0000
0000
,
0001
0100
0000
0000
,
1000
1000
0000
0000
,
1000
0000
0010
0000
,
0010
0000
0000
0000
,
0001
0000
0010
0000
,
0001
0000
0000
0000
,
0001
0001
0000
0000
,
0001
1000
0000
0000
,
0001
0100
0000
0000
,
1000
1000
0000
0000
,
1000
0000
0010
0000
,
0010
0000
0000
0000
,
0001
0000
0010
0000
,
0001
0000
0000
0000
,
0001
0001
1000
1000
,
0002
0000
0003
0000
,
1000
0000
0100
0000
,
0001
0000
0100
0000
,
1001
0000
0000
0000
,
0000
0000
0000
0000
,
0000
0000
0000
0000
,
1000
1000
0001
0001
,
2000
0000
3000
0000
,
0001
0000
0100
0000
,
1000
0000
0100
0000
,
1001
0000
0000
0000
;

//---------------dance-single - ----------------
#NOTES:
     dance-single:
     :
     Medium:
     5:
     :
0000
0000
0000
0000
,
0000
0000
0000
0000
,
0000
0000
0000
0000
,
0000
0000
0000
0000
,
0000
0000
0000
0000
,
2000
0000
0010
3010
,
0100
0001
1000
1000
,
0002
0000
0010
0013
,
0100
1000
0001
0000
,
1000
1000
0100
0100
,
0001
0001
0100
0100
,
1000
1000
0001
0100
,
0020
0000
0130
0000
,
2000
0000
0010
3010
,
0100
0010
1000
1000
,
0002
0000
0010
0013
,
0100
1000
0001
0000
,
0010
0110
0000
0100
,
0001
0010
0100
0010
,
0000
0001
0100
0000
,
0001
1000
0001
0000
,
1000
0010
0200
0300
,
0001
0100
0001
0100
,
0010
1000
0200
0300
,
0010
0002
1003
0000
,
0010
0110
0000
0100
,
1000
0010
0100
0010
,
0000
1000
0100
0000
,
1000
0001
1000
0000
,
0001
0010
0200
0300
,
1000
0100
1000
0100
,
0010
0001
0200
0300
,
1000
0001
1000
0000
,
0002
1003
0002
0003
,
0020
0000
1030
0000
,
0002
0013
0002
0003
,
0020
0000
0130
0000
,
0010
0000
0010
0100
,
1000
0100
0001
0000
,
1000
0010
0001
0100
,
0001
0001
0001
0000
,
2000
3001
2000
3000
,
0020
0000
0031
0000
,
2000
3010
2000
3000
,
0020
0000
0130
0000
,
0010
0110
0000
0100
,
1000
0010
0100
0010
,
0000
1000
0100
0000
,
1000
0001
1000
0000
,
0001
0010
0200
0300
,
1000
0100
1000
0100
,
0010
0001
0200
0300
,
0010
2000
3001
0000
,
0010
0110
0000
0100
,
0001
0010
0100
0010
,
0000
0001
0100
0000
,
0001
1000
0001
0000
,
1000
0010
0200
0300
,
0001
0100
0001
0100
,
0010
1000
0200
0300
,
0001
1000
0001
0000
,
2000
3001
2000
3000
,
0020
0000
0031
0000
,
0100
1000
0001
0010
,
1000
0001
1000
1000
,
1001
0000
0001
0001
,
2000
0000
0000
0000
0000
3000
0002
0000
0000
0000
0000
0013
,
0000
0010
0000
0010
0000
0100
0000
0000
0000
0000
0000
0000
,
0002
1003
0002
0003
,
0020
0000
1030
0000
,
0100
0001
1000
0010
,
0001
1000
0001
0001
,
1001
0000
0000
0000
;

//---------------dance-single - ----------------
#NOTES:
     dance-single:
     :
     Hard:
     7:
     :
0000
0000
0000
0000
,
0000
0000
0000
0000
,
0000
0000
0000
0000
,
0000
0000
0000
0000
,
0000
0000
0000
0000
0000
0000
0000
0000
0000
1000
0000
0020
,
0000
0000
0100
0100
,
0130
0000
0000
0001
0000
0000
1000
0000
0000
0001
0000
0020
,
0000
0000
0100
0100
,
0130
1000
0001
0110
,
1000
0000
0001
0100
0000
0000
1000
0000
0100
0010
0000
0000
,
0001
0000
0100
1000
0000
0000
0001
0000
0100
0010
0000
0000
,
1000
0000
0001
0100
0000
0000
0001
0000
1000
0010
0000
0000
,
0001
0000
0000
1000
0000
0000
1000
0000
0000
0001
0000
0020
,
0000
0000
0100
0100
,
0130
0000
0000
1000
0000
0000
0100
0000
0000
0001
0000
0020
,
0000
0000
0100
0100
,
0130
0001
1000
0110
,
0001
0101
0020
0030
,
0001
0100
1010
0100
,
0010
0001
1000
0000
,
0001
0000
0001
0100
0000
0000
0010
0000
1000
0100
0000
0000
,
0010
1200
0320
0130
,
0001
0100
1000
0100
,
0020
0000
2030
0100
,
3002
0000
1003
0100
,
1000
1100
0020
0030
,
1000
0100
0011
0100
,
0010
1000
0001
0000
,
1000
0000
1000
0100
0000
0000
0010
0000
0001
0100
0000
0000
,
0010
0201
0320
0130
,
1000
0100
0001
0100
,
0020
0000
0032
0100
,
1003
0000
0000
0100
0000
0000
0001
0000
0000
1000
0000
0020
,
0000
1030
0100
0010
,
2000
0000
0000
0010
0000
0000
0100
0000
0000
3001
0000
0020
,
0000
0031
0100
0010
,
0002
0010
0100
0003
,
0010
0000
1000
0010
,
1000
0000
0100
1000
0000
0000
0001
0000
0100
0001
0000
0000
,
0010
0000
0000
1000
0000
0001
0010
0000
0000
0100
0000
0000
,
1000
0000
0000
1000
0000
0000
1000
0000
0000
1000
0000
0020
,
0000
0031
0100
0010
,
0002
0000
0000
0010
0000
0000
0100
0000
0000
1003
0000
0020
,
0000
1030
0100
0010
,
2000
0010
0100
3000
,
1000
1010
0200
0300
,
1000
0010
0101
0010
,
0100
1000
0001
0000
,
1000
0000
1000
0100
0000
0000
0010
0000
0001
0100
0000
0000
,
0100
0021
0230
0310
,
1000
0010
0001
0010
,
0200
0000
0302
0010
,
2003
0000
3001
0010
,
0001
0011
0200
0300
,
0001
0010
1100
0010
,
0100
0001
1000
0000
,
0001
0000
0001
0100
0000
0000
0010
0000
1000
0100
0000
0000
,
0100
1020
0230
0310
,
0001
0010
1000
0010
,
0200
0000
2300
0010
,
3001
0000
0000
0010
0000
0000
1000
0000
0000
0001
0000
0200
,
0000
0301
0010
0100
,
0002
0100
0010
1003
,
0100
1000
0001
0010
,
1000
0000
0001
0000
0100
0000
0010
0000
0000
1000
0000
0010
,
0000
0100
0100
0100
,
0001
0010
0001
0010
0100
0010
0100
1000
0100
1000
0001
0100
,
0000
0010
0000
1000
0000
0100
0000
0000
0000
1000
0000
0200
,
0000
1300
0010
0100
,
2000
0100
0010
3001
,
0100
0001
1000
0010
,
0001
0000
1000
0000
0100
0000
0010
0000
0000
0001
0000
1000
;
