#TITLE:Be With You (Still Miss You);
#ARTIST:nc ft.EDDIE Kay;
#BANNER:Be With You (Still Miss You).png;
#BACKGROUND:Be With You (Still Miss You)-bg.png;
#CDTITLE:./CDTITLES/DanceDanceRevolution HOTTEST PARTY 3.png;
#MUSIC:Be With You (Still Miss You).ogg;
#SAMPLESTART:69.769;
#SAMPLELENGTH:15;
#BPMS:0=116;

//---------------dance-single - ----------------
#NOTES:
     dance-single:
     :
     Beginner:
     1:
     :
0000
0000
0000
0000
,
0000
0000
0000
0000
,
0000
0000
0000
0000
,
0000
0000
0000
0000
,
0001
0000
0000
0000
,
0000
0000
0000
0000
,
1000
0000
0000
0000
,
1000
0000
0000
0000
,
0001
0000
0000
0000
,
0001
0000
0000
0000
,
0010
0000
0000
0000
,
0000
0000
0000
0000
,
0010
0000
0000
0000
,
0010
0000
0000
0000
,
0000
0000
0000
0000
,
1000
0000
0000
0000
,
0000
0000
0000
0000
,
0001
0000
0000
0000
,
0010
0000
0000
0000
,
0000
0000
0000
0000
,
0010
0000
0000
0000
,
0010
0000
0000
0000
,
1000
0000
0000
0000
,
0000
0000
0000
0000
,
0000
0000
0000
0000
,
0001
0000
0000
0000
,
1000
1000
0000
0000
,
1000
1000
0000
0000
,
0000
0000
0000
0000
,
0100
0000
0000
0000
,
0001
0001
0000
0000
,
0001
0001
0000
0000
,
0000
0000
0000
0000
,
0100
0000
0000
0000
,
0001
0000
0001
0000
,
0001
0000
0000
0000
,
1000
0000
1000
0000
,
1000
0000
0000
0000
,
0010
0000
0000
0000
,
0000
0000
0000
0000
,
0010
0000
0000
0000
,
0000
0000
0000
0000
,
0001
0001
0001
0000
,
0001
0000
0000
0000
,
1000
1000
1000
0000
,
1000
0000
0000
0000
,
0010
0000
0000
0000
,
0010
0000
0000
0000
,
0010
0000
0000
0000
,
0010
0000
0000
0000
,
0100
0000
0000
0000
;

//---------------dance-single - ----------------
#NOTES:
     dance-single:
     :
     Easy:
     3:
     :
0000
0000
0000
0000
,
0000
0000
0000
0000
,
0000
0000
0000
0000
,
0000
0000
0000
0000
,
0001
0000
0000
0000
,
1000
0000
0000
0000
,
1000
0000
0001
0000
,
1000
0000
0000
0000
,
1000
0000
0001
0000
,
1000
0000
0000
0000
,
0001
0001
0000
0000
,
0010
0000
0000
0000
,
0001
0001
0000
0000
,
0100
0000
0000
0000
,
0010
0010
0001
0001
,
0000
0000
0000
0000
,
0010
0010
0001
0001
,
0000
0000
0000
0000
,
1000
1000
0000
0000
,
0010
0000
0000
0000
,
1000
1000
0000
0000
,
0100
0000
0000
0000
,
0010
0010
1000
1000
,
0000
0000
0000
0000
,
0010
0010
1000
1000
,
0000
0000
0000
0000
,
0100
0100
0100
0000
,
0100
0100
0100
0000
,
2000
0000
3000
0000
,
1001
0000
0000
0000
,
0100
0100
0100
0000
,
0100
0100
0100
0000
,
0002
0000
0003
0000
,
1001
0000
0000
0000
,
0001
0000
0001
0001
,
0001
0000
0100
0000
,
0001
0000
0001
0001
,
0001
0000
0100
0000
,
0001
1000
0001
1000
,
0001
0000
0000
0000
,
0001
1000
0001
1000
,
0001
0000
0000
0000
,
1000
0000
1000
1000
,
1000
0000
0100
0000
,
1000
0000
1000
1000
,
1000
0000
0100
0000
,
1000
0001
1000
0001
,
1000
0000
0000
0000
,
1000
0001
1000
0001
,
1000
0000
0000
0000
,
0002
0000
0000
2000
0000
0000
0000
0000
,
0000
0000
0000
3003
;

//---------------dance-single - ----------------
#NOTES:
     dance-single:
     :
     Medium:
     4:
     :
0000
0000
0000
0000
,
0000
0000
0000
0000
,
0000
0000
0000
0000
,
0000
0000
0000
0000
,
1000
0000
1000
0001
,
0001
0000
0001
1001
,
1000
0010
0100
0001
,
0001
1000
0010
0100
,
0001
0010
0100
1000
,
1000
0001
0010
0100
,
1000
0001
0001
0000
,
1000
0100
0100
0000
,
1000
0001
0001
1000
,
0020
0000
1030
1000
,
0001
1001
1000
1001
,
0001
0000
0100
0110
,
1000
1001
0001
1001
,
0001
0000
0100
1000
,
0001
1000
1000
0000
,
0001
0100
0100
0000
,
0001
1000
1000
0001
,
0020
0000
0031
0001
,
1000
1001
0001
1001
,
1000
0000
0100
0110
,
0001
1001
1000
1001
,
0000
0000
0000
0000
,
0010
0010
0100
1000
,
0010
0010
0100
0001
,
2000
0000
3002
0000
,
0203
0000
0000
0300
,
0010
0010
0100
1000
,
0010
0010
0100
0010
,
2000
0000
3002
0000
,
0203
0000
0300
0000
,
0010
0000
0001
0010
,
0100
0010
0001
0010
,
0010
0000
1000
0010
,
0100
0010
1000
0010
,
1000
0000
0001
0001
,
0010
0010
0100
0000
,
0001
0000
1000
1000
,
0010
0010
0100
0000
,
0010
0100
0001
0010
,
0100
0010
0101
0010
,
0010
0100
1000
0010
,
0100
0010
1100
0010
,
1000
0100
0001
0001
,
0010
0010
0100
0100
,
0001
0100
1000
1000
,
0010
0010
0100
0100
,
2000
0000
0000
0002
0000
0000
0000
0000
,
0000
0000
0000
3003
;

//---------------dance-single - ----------------
#NOTES:
     dance-single:
     :
     Hard:
     5:
     :
0000
0000
0000
0000
,
0000
0000
0000
0000
,
0000
0000
0000
0000
,
0000
0000
0000
0000
,
1000
0000
0100
1000
,
0001
0000
0100
1001
,
0100
0010
0001
0010
,
0100
0000
0010
0000
0001
0000
0010
0001
,
0100
0010
1000
0010
,
0100
0000
0010
0000
1000
0000
0010
1000
,
0001
0011
1000
0100
,
1000
0010
0100
0010
,
0001
0011
1000
0001
,
0020
0000
0130
0110
,
0001
1100
1000
0101
,
1000
1100
0001
0101
,
1000
0101
0001
1100
,
0100
0010
1001
0010
,
1000
1010
0001
0100
,
0001
0010
0100
0010
,
1000
1010
0001
1000
,
0020
0000
0130
0110
,
1000
0101
0001
1100
,
0001
0101
1000
1100
,
0001
1100
1000
0101
,
1000
0010
0100
0000
0001
0010
0100
0000
,
1000
0001
1000
0001
0100
0010
0000
0000
,
1000
0001
1000
0001
0100
0010
0000
0000
,
2000
3100
0002
0103
,
2000
0010
0002
3003
,
0001
1000
0001
1000
0100
0010
0000
0000
,
0001
1000
0001
1000
0010
0010
0000
0000
,
0002
0103
2000
3100
,
2000
0000
0100
3100
,
0010
0000
0001
0000
0000
0100
0010
0000
,
0100
0001
0010
0000
0001
0000
1100
0000
,
0010
0000
1000
0000
0000
0100
0010
0000
,
0100
1000
0010
0000
1000
0000
0101
0000
,
1000
0000
0100
0100
,
0010
0010
1000
1000
,
0001
0000
0100
0100
,
0010
0010
0100
0100
,
0010
0000
0001
0100
0000
0100
0010
0000
,
0100
0001
0010
0000
0001
0100
1100
0000
,
0010
0000
1000
0001
0000
0100
0010
0000
,
0100
1000
0010
0001
1000
0000
0101
0000
,
1000
0000
0000
0000
0100
0010
0100
0000
,
0010
0001
0010
0000
0100
1000
0100
0000
,
0001
0000
0000
0000
0100
0010
0100
0001
,
0010
0001
0010
0000
0100
1000
0100
1000
,
0002
0000
0000
0200
0000
0000
0000
0000
,
0000
0000
0000
0303
;
