#TITLE:You're The One That I Want;
#ARTIST:DAVE V & TAYA;
#BANNER:You're The One That I Want.png;
#BACKGROUND:You're The One That I Want-bg.png;
#CDTITLE:./CDTITLES/DanceDanceRevolution HOTTEST PARTY 2.png;
#MUSIC:You're The One That I Want.ogg;
#SAMPLESTART:43.449;
#SAMPLELENGTH:15;
#BPMS:0=120;

//---------------dance-single - ----------------
#NOTES:
     dance-single:
     :
     Beginner:
     2:
     :
0000
0000
0000
0000
,
0000
0000
0000
0000
,
0000
0000
0000
0000
,
1000
0000
0000
0000
,
0001
0000
0000
0000
,
0000
0100
0000
1000
,
0000
0100
0000
0001
,
0000
0010
0000
1000
,
0000
0100
0000
0001
,
0000
0000
0001
0001
,
0000
0000
1000
1000
,
0000
0000
0010
0010
,
0000
0000
0110
0000
,
1001
0000
0010
0000
,
1001
0000
0000
0000
,
1001
0000
0010
0000
,
0110
0000
0000
0000
,
1001
0000
0010
0000
,
1001
0000
0000
0000
,
1001
0000
0010
0000
,
0110
0000
0000
0000
,
0000
0000
1001
1001
,
0000
1000
0000
0001
,
0000
0001
0001
0001
,
0000
0001
0000
1000
,
0000
1000
1000
1000
,
0000
0010
0000
0100
,
0000
0010
0010
0010
,
0010
0000
0100
0100
,
0100
0000
0000
0000
,
0000
0000
0000
0000
,
0001
1000
0001
1000
,
0000
0100
0000
1000
,
0000
0100
0000
0001
,
0000
0010
0000
1000
,
0000
0100
0000
0001
,
0000
0000
0001
0001
,
0000
0000
1000
1000
,
0000
0000
0010
0010
,
0000
0000
0110
0000
,
1001
0000
0010
0000
,
1001
0000
0000
0000
,
1001
0000
0010
0000
,
0110
0000
0000
0000
,
1001
0000
0010
0000
,
1001
0000
0000
0000
,
1001
0000
0010
0000
,
0110
0000
0000
0000
,
0010
0100
0110
0000
,
1001
0000
0000
0000
;

//---------------dance-single - ----------------
#NOTES:
     dance-single:
     :
     Easy:
     2:
     :
0000
0000
0000
0000
,
0000
0000
0000
0000
,
0000
0000
0000
0000
,
0010
0000
1000
0000
,
0100
0000
0010
0000
,
0010
0000
0001
1000
,
0010
0000
1000
0001
,
0100
0000
1000
0001
,
0100
0000
0001
1000
,
0001
0000
0100
0000
,
1000
0000
0100
0000
,
0001
0000
0010
0000
,
1000
0000
0010
0000
,
2001
0000
0000
3000
,
1002
0000
0000
0003
,
0120
0000
0000
0030
,
0210
0000
0000
0300
,
1002
0000
1000
0003
,
2001
0000
0001
3000
,
0210
0000
0010
0300
,
0120
0000
0100
0030
,
0000
0000
1001
0110
,
1001
0000
0010
1000
,
0000
1000
1000
0001
,
1000
0000
0010
0001
,
0000
0001
0001
1000
,
1001
0000
0100
0001
,
0000
0001
0001
1000
,
0020
0000
0030
0000
,
2000
0002
0000
0000
,
3003
0000
0000
0000
,
1000
0001
0100
1001
,
0010
0000
0001
1000
,
0010
0000
1000
0001
,
0100
0000
1000
0001
,
0100
0000
0001
1000
,
0001
0000
0100
0000
,
1000
0000
0100
0000
,
0001
0000
0010
0000
,
1000
0000
0010
0000
,
2001
0000
0000
3000
,
1002
0000
0000
0003
,
0120
0000
0000
0030
,
0210
0000
0000
0300
,
1002
0000
1000
0003
,
2100
0000
0100
3000
,
0210
0000
0010
0300
,
0120
0000
0100
0030
,
0000
0000
1001
0110
,
1001
0000
0000
0000
;

//---------------dance-single - ----------------
#NOTES:
     dance-single:
     :
     Medium:
     6:
     :
0000
0000
0000
0000
,
0000
0000
0000
0000
,
0000
0000
0000
0000
,
0010
1000
0100
0001
,
0010
1000
0100
1000
,
0010
0000
1000
0001
0100
0000
0010
0000
,
0100
0000
1000
0001
0010
0000
0100
0000
,
0001
0100
1000
0000
0010
0000
0001
0000
,
0100
0010
0001
0000
1000
0000
0100
0000
,
1000
0100
0010
0000
0001
0100
0010
0000
,
0001
1000
0010
0000
0100
0010
1000
0000
,
1000
0010
0100
0000
0100
0010
0001
0000
,
0001
1000
0010
0000
0010
1000
0001
0000
,
1002
0100
0010
0003
,
0120
0001
1000
0030
,
2001
0010
0100
3000
,
0210
0010
0001
0300
,
1002
0100
0010
1003
,
0120
0001
1000
0130
,
2001
0010
0100
3001
,
0210
0010
0001
1300
,
0100
0001
1000
0000
1001
0000
0110
0000
,
0010
1000
0010
0100
,
1000
0000
0001
0010
1000
0000
0101
0000
,
0100
1000
0100
0010
,
1000
0000
0001
0100
1000
0000
0011
0000
,
0100
0001
0100
0010
,
0001
0000
1000
0100
0001
0000
1010
0000
,
0200
0300
0001
1000
,
0200
0020
0000
0000
,
0330
0000
0000
0000
,
1001
0110
1001
0110
,
0010
1000
0100
0001
,
0010
1000
0100
1000
,
0010
0000
1000
0001
0100
0000
0010
0000
,
0100
0000
1000
0001
0010
0000
0100
0000
,
0001
0100
1000
0000
0010
0000
0001
0000
,
0100
0010
0001
0000
1000
0000
0100
0000
,
1000
0100
0010
0000
0001
0100
0010
0000
,
0001
1000
0010
0000
0100
0010
1000
0000
,
1002
0100
0010
0003
,
0120
0001
1000
0030
,
2001
0010
0100
3000
,
0210
0010
0001
0300
,
1002
0100
0010
1003
,
0120
0001
1000
0130
,
2001
0010
0100
3001
,
0210
0010
0001
0310
,
0100
0001
1000
0000
1001
0000
0110
0001
,
0100
1000
1001
0000
0000
0000
0000
0000
;

//---------------dance-single - ----------------
#NOTES:
     dance-single:
     :
     Hard:
     7:
     :
0000
0000
0000
0000
,
0000
0000
0000
0000
,
0000
0000
0000
0000
,
0010
0100
0001
0000
0100
0001
1000
0000
,
0100
0010
1000
0000
0010
1000
0101
0000
,
0010
1000
0100
0000
0100
0001
0010
0000
,
1000
0000
0000
0010
0100
0000
0000
0000
0001
0000
0100
0000
0010
0000
0000
0000
,
1100
0000
0000
0010
0100
0000
0000
0000
0011
0000
0100
0000
1000
0000
0000
0000
,
0101
0000
0000
0001
0010
0000
0000
0000
1010
0000
0100
0000
0001
0000
0000
0000
,
0001
0100
0010
0000
0001
0010
0100
0000
,
1000
0001
0100
0001
0010
0100
1000
0000
,
0001
0100
0010
0000
0001
0010
0100
0000
,
1000
0001
0100
0001
0010
0100
1000
0000
,
2001
0000
0010
0000
0100
0000
3010
0001
,
0200
0000
1000
0000
0001
0000
0301
0010
,
1002
0000
0100
0000
0010
0000
0103
1000
,
0020
0001
1000
1030
,
2001
0000
0010
0000
0100
0000
3010
0001
,
0200
0000
1000
0000
0001
0000
0301
0010
,
1002
0000
0100
0000
0010
0000
0103
1000
,
0020
0001
1000
1030
,
0001
0010
0100
1000
1001
0000
0110
0000
,
0010
0000
0000
1000
0100
0000
0000
0000
0100
0000
0001
0000
0010
0000
0000
0000
,
1000
0010
0001
0010
1010
0000
0101
0000
,
0010
0000
0000
1000
0100
0000
0000
0000
0100
0000
0001
0000
0010
0000
0000
0000
,
0001
0100
1000
0100
1100
0000
0011
0000
,
0010
0000
0000
1000
0100
0000
0000
0000
0100
0000
0001
0000
0010
0000
0000
0000
,
0100
1000
0001
0100
0110
0000
1001
0002
,
2000
0000
3003
0000
0000
0100
0010
1000
,
0001
0020
0200
0000
0000
0000
0000
0000
,
0330
0000
0000
0000
,
1001
0101
1010
0100
,
0011
0000
0000
1000
0100
0000
0000
0000
0100
0000
0001
0000
0010
0000
0100
0000
,
1000
0000
0000
0010
0100
0000
0000
0000
0001
0000
0100
0000
0010
0000
0000
0000
,
1100
0000
0000
0010
0100
0000
0000
0000
0011
0000
0100
0000
1000
0000
0010
0000
,
0101
0000
0000
0001
0010
0000
0000
0000
1010
0000
0010
0000
0100
0000
0000
0000
,
0001
1000
0010
0000
0001
1000
0100
0000
,
0001
0100
0010
1000
0001
0010
0100
0000
,
1000
0001
0010
0000
1000
0010
0100
0000
,
0001
0100
1000
0100
0001
0010
1000
0000
,
2001
0000
0100
0000
0010
0000
3100
0001
,
0020
0000
1000
0000
0001
0000
0031
0100
,
1002
0000
0010
0000
0100
0000
0013
1000
,
0200
0001
1000
1300
,
2001
0000
0100
0000
0010
0000
3100
0001
,
0020
0000
1000
0000
0001
0000
0031
0100
,
1002
0000
0010
0000
0100
0000
0013
1000
,
0200
0001
1000
1300
,
0001
0100
0010
1000
1001
0000
0110
0010
,
0001
0100
1100
0000
0000
0000
0000
0000
;
