#TITLE:We Got The Beat;
#ARTIST:Pop n' Fresh;
#BANNER:We Got The Beat.png;
#BACKGROUND:We Got The Beat-bg.png;
#CDTITLE:./CDTITLES/DanceDanceRevolution HOTTEST PARTY 2.png;
#MUSIC:We Got The Beat.ogg;
#SAMPLESTART:19.972;
#SAMPLELENGTH:15;
#BPMS:0=153;

//---------------dance-single - ----------------
#NOTES:
     dance-single:
     :
     Beginner:
     1:
     :
0000
0000
0000
0000
,
0000
0000
0000
0000
,
0000
0000
0000
0000
,
0000
0000
0000
0000
,
0000
0000
0000
0000
,
0000
1000
0000
0000
,
1000
0000
1000
0000
,
0000
0001
0000
0000
,
0001
0000
0001
0000
,
0000
1000
0000
0000
,
1000
0000
1000
0000
,
2001
0000
0000
0000
,
0000
0000
0000
3000
,
0000
0000
0100
0100
,
0000
0000
0100
0100
,
0000
0000
0000
0000
,
2002
3003
0000
0000
,
0200
0000
0000
0300
,
0000
0000
0000
0000
,
0010
0000
0000
0000
,
1000
0000
1000
0000
,
0010
0000
0000
0000
,
0001
0000
0001
0000
,
0100
0000
0000
0000
,
1000
0000
1000
0000
,
1002
0000
0000
0000
,
0000
0000
0000
0003
,
0000
0000
0100
0100
,
0000
0000
0100
0100
,
0000
0000
0000
0000
,
2002
3003
0000
0000
,
0020
0000
0000
0030
,
0000
0000
0100
0000
,
0002
0000
0000
0003
,
0000
0000
1000
0000
,
2002
0000
0000
3003
,
0000
0000
0100
0000
,
0220
0000
0000
0330
,
0000
0000
0100
0000
,
0001
0000
0000
0000
,
1000
0000
0000
0000
,
0000
0000
0010
0010
,
0000
0000
0010
0010
,
0000
0000
0000
0000
,
2002
0000
3003
0000
,
0001
0000
0000
0000
,
0010
0000
0000
0000
,
1000
0000
0000
0000
,
0010
0000
0000
0000
,
0001
0000
0000
0000
,
0010
0000
0000
0000
,
1000
0000
0000
0000
,
0001
0000
0000
0000
,
0010
0000
0100
0000
,
0002
0000
2000
3003
,
0000
1000
0000
0000
,
0000
0000
0000
0000
,
0000
0001
0000
0000
,
0000
0000
1000
0000
,
0000
0000
0000
0000
,
0000
0000
0001
0000
,
0110
0000
0000
0000
;

//---------------dance-single - ----------------
#NOTES:
     dance-single:
     :
     Easy:
     3:
     :
0000
0000
0000
0000
,
0000
0000
0000
0000
,
0000
0000
0000
0000
,
0000
0000
0000
0000
,
0000
0000
0000
0000
,
0000
1000
0000
0001
,
1000
0001
1000
0000
,
0000
0001
0000
1000
,
0001
1000
0001
0000
,
0000
1000
0000
0001
,
1000
0001
1000
0000
,
2001
0000
0000
0000
,
0010
0000
0010
3000
,
0020
0000
0130
0100
,
0020
0000
0130
0100
,
1001
0000
0000
0000
,
2002
3003
1000
0001
,
0200
0000
0000
0300
,
0000
0000
0000
0000
,
0010
0000
0001
0000
,
1000
0100
1000
0000
,
0010
0000
1000
0000
,
0001
0010
0001
0000
,
0100
0000
0001
0000
,
1000
0100
1000
0000
,
1002
0000
0000
0000
,
0010
0000
0010
0003
,
2000
0000
3100
0100
,
0002
0000
0103
0100
,
1001
0000
0000
0000
,
2002
3003
0001
1000
,
0020
0000
0000
0030
,
1000
0000
0100
0000
,
0002
0000
0000
0003
,
0010
0000
1000
0000
,
2002
0000
0000
3003
,
0001
0000
0100
0000
,
0220
0000
0000
0330
,
1000
0000
0100
0000
,
0001
0000
1000
0000
,
0001
0000
1000
0000
,
0200
0000
0310
0010
,
0200
0000
0310
0010
,
1001
0000
0000
0000
,
2002
0000
3003
0000
,
0000
0001
0000
0100
,
0000
0010
0000
1000
,
0000
1000
0000
0100
,
0000
0010
0000
0100
,
0000
0001
0000
0100
,
0000
0010
0000
0100
,
0000
1000
0000
0100
,
0000
0001
0000
0100
,
0110
0110
1001
0110
,
0002
0000
2000
3003
,
1000
1000
0000
0000
,
0000
0000
0001
1000
,
0001
0001
0000
0000
,
0000
0000
1000
1000
,
0010
0010
0000
0000
,
0000
0000
0001
0001
,
0110
0000
0000
0000
;

//---------------dance-single - ----------------
#NOTES:
     dance-single:
     :
     Medium:
     5:
     :
0000
0000
0000
0000
,
0000
0000
0000
0000
,
0000
0000
0000
0000
,
0000
0000
0000
0000
,
0000
0000
0000
0000
,
0001
0000
1000
0000
0001
0100
1000
0000
,
0001
1000
0001
0000
,
1000
0000
0001
0000
1000
0100
0001
0000
,
1000
0001
1000
0000
,
0001
0000
1000
0000
0001
0010
1000
0000
,
0001
1000
0001
0000
,
1002
0000
1000
0000
,
0100
0100
0100
0103
,
0020
0000
0000
0000
0130
1000
0100
0000
,
0020
0000
0000
0000
0130
0001
0100
0000
,
1001
0000
0000
0000
,
2002
0000
3003
0000
0001
1000
0001
0200
,
0000
0000
0000
0300
,
0000
0000
0000
0000
,
0010
0000
0001
0000
1000
0100
0010
0000
,
0001
0100
0001
0000
,
0010
0000
1000
0000
0001
0100
0010
0000
,
1000
0010
1000
0000
,
0100
0000
0001
0000
1000
0010
0100
0000
,
0001
0100
0001
0000
,
2001
0000
0001
0000
,
0010
0010
0010
3010
,
0002
0000
0000
0000
0103
0001
0100
0000
,
2000
0000
0000
0000
3100
1000
0100
0000
,
1001
0000
0000
0000
,
2002
0000
3003
0000
1000
0001
1000
0020
,
0000
0000
0000
0030
,
0001
1000
0100
0010
,
2000
0000
0000
3000
,
0010
0100
0001
1000
,
0022
0000
0000
0033
,
1000
0010
0100
0001
,
2200
0000
0000
3300
,
0001
1000
0100
0010
,
1000
0000
0001
0000
1000
0100
0001
0000
,
0001
0000
1000
0000
0001
0100
1000
0000
,
0200
0000
0000
0000
0310
0001
0010
0000
,
0200
0000
0000
0000
0310
1000
0010
0000
,
1001
0000
0000
0000
,
2002
0000
0000
0000
3003
0110
1001
0000
,
0001
0000
1000
1000
0000
0100
0100
0000
,
1000
0000
0010
0010
0000
0001
0001
0000
,
1000
0000
0001
0001
0000
0100
0100
0000
,
0001
0000
0010
0010
0000
0100
0100
0000
,
0001
0000
1000
1000
0000
0100
0100
0000
,
1000
0010
0010
0000
0000
0100
0100
0000
,
1000
0000
0001
0001
0000
0100
0100
0000
,
0001
0000
1000
1000
0000
0100
0100
0000
,
1100
1100
0101
1100
,
2002
0003
0200
3300
,
0001
0100
0001
0100
0000
0000
0000
0000
,
0000
0000
0000
0000
1000
0100
0001
0000
,
1000
0100
1000
0100
0000
0000
0000
0000
,
0000
0000
0000
0000
0001
0100
1000
0000
,
0010
0100
0010
0100
0000
0000
0000
0000
,
0000
0000
0000
0000
0001
1000
0001
0110
;

//---------------dance-single - ----------------
#NOTES:
     dance-single:
     :
     Hard:
     7:
     :
0000
0000
0000
0000
,
0000
0000
0000
0000
,
0000
0000
0000
0000
,
0000
0000
0000
0000
,
0000
0000
0000
0000
,
1000
0000
0001
0000
1000
0100
0001
0000
,
1000
0100
1000
0010
1000
1000
1000
0000
,
0001
0000
1000
0000
0001
0100
1000
0000
,
0001
0100
0001
0010
0001
0001
0001
0000
,
1000
0000
0001
0000
1000
0010
0001
0000
,
1000
0010
1000
0100
1000
1000
1000
0000
,
2001
0100
0001
0001
,
0100
0000
0010
0000
0100
0100
3100
0000
,
1020
0000
1000
0000
0130
0001
0100
0000
,
0021
0000
0001
0000
0130
1000
0100
0000
,
1001
0000
0000
0000
,
2002
0000
3003
0000
1000
0001
0100
0020
,
0000
0000
0000
0030
,
0000
0000
0000
0000
,
0010
0000
1000
0000
0001
0100
0010
0000
,
1000
0100
1000
0010
1000
1000
1000
0000
,
0010
0000
0001
0000
1000
0100
0010
0000
,
0001
0100
0001
0010
0001
0001
0001
0000
,
0100
0000
1000
0000
0001
0010
0100
0000
,
1000
0010
1000
0100
1000
1000
1000
0000
,
1002
0010
1000
1000
,
0010
0000
0100
0000
0010
0010
0013
0000
,
2001
0000
0001
0000
3100
1000
0100
0000
,
1002
0000
1000
0000
0103
0001
0100
0000
,
1001
0000
0000
0000
,
2002
0000
3003
0000
0001
1000
0010
0200
,
0000
1000
0010
0301
,
1000
1000
0001
0001
0100
0100
0010
0010
,
0002
0010
0100
1003
,
0100
0100
0010
0010
1000
1000
0001
0001
,
2200
0000
0000
3300
,
0001
0001
0100
0100
0010
0010
1000
1000
,
0022
0000
0000
0033
,
1000
1000
0001
0001
0100
0100
0010
0010
,
0001
0000
1000
0000
0001
0100
1000
0000
,
1000
0000
0001
0000
1000
0100
0001
0000
,
1200
0000
1000
0000
0310
0001
0010
0000
,
0201
0000
0001
0000
0310
1000
0010
0000
,
1001
0000
0000
0000
,
2002
0000
0000
0000
3003
0110
1001
0000
,
1000
0000
0001
0100
0010
0100
0001
0000
,
0001
0000
1000
0100
0010
0100
1000
0000
,
0001
0000
1000
0100
0001
0100
1000
0000
,
1000
0000
0010
0100
1000
0100
0010
0000
,
1000
0000
0001
0100
0010
0100
0001
0000
,
0001
0000
0010
0100
1000
0100
0010
0000
,
0001
0000
1000
0100
0001
0100
1000
0000
,
1000
0000
0001
0100
1000
0100
0001
0000
,
0101
0101
1100
0101
,
2002
3000
0200
0303
,
1000
0100
1000
0100
0000
0000
1000
0000
,
0010
0000
1000
0000
0001
0100
1000
0000
,
0001
0100
0001
0100
0000
0000
0001
0000
,
0010
0000
0001
0000
1000
0100
0001
0000
,
0010
0100
0010
0100
0000
0000
0010
0000
,
1000
0000
0001
0000
1000
0001
1000
0110
;
