#TITLE:We Can Win The Fight;
#ARTIST:D-crew feat.Matt Tucker;
#BANNER:We Can Win the Fight.png;
#BACKGROUND:We Can Win The Fight-bg.png;
#CDTITLE:./CDTITLES/DanceDanceRevolution HOTTEST PARTY 2.png;
#MUSIC:We Can Win the Fight.ogg;
#SAMPLESTART:54.415;
#SAMPLELENGTH:15;
#BPMS:0=119;

//---------------dance-single - ----------------
#NOTES:
     dance-single:
     :
     Beginner:
     2:
     :
0000
0000
0000
0000
,
0000
0000
0000
0000
,
0000
0000
0000
0000
,
1000
0000
0000
0000
,
1001
0000
0000
0000
,
0001
0000
0000
0000
,
1001
0000
0000
0000
,
0000
0000
0000
1001
,
0000
0000
0000
1001
,
0000
0000
0000
1001
,
0000
0000
0000
0000
,
0110
0110
0110
0000
,
0110
0110
0110
0000
,
0000
0001
0000
0000
,
0000
1000
0000
0000
,
0000
0000
0000
0110
,
0000
0000
0000
0110
,
0000
0000
0010
0010
,
0000
0000
0100
0100
,
0000
0000
1000
0000
,
1001
0000
0001
0000
,
1001
0000
0000
0000
,
0010
0010
0010
0000
,
0000
0100
0100
0100
,
0000
0010
0010
0010
,
0000
0100
0100
0100
,
0000
0000
0000
0000
,
0010
0010
0010
0010
,
0000
0000
1001
0000
,
0110
0000
0000
0000
,
0110
0000
0000
0000
,
0010
0010
0010
0010
,
0000
0000
1001
0000
,
0000
0000
0000
0000
,
1001
0000
0000
0000
,
0220
0000
0000
0000
,
0330
0000
0000
0000
,
0100
0000
0110
0000
,
0010
0000
0110
0000
,
0001
0000
1000
0000
,
0001
0000
1000
0000
,
0000
0100
0000
1001
,
0000
0010
0000
1001
,
0000
0001
0000
0110
,
0000
1000
0000
0110
,
0000
0001
0000
1001
,
0000
1000
0000
1001
,
0000
0000
0000
0110
,
0000
0000
0000
0110
,
0000
0001
0001
1001
,
0000
0000
0000
1001
,
0000
0110
0000
1001
,
0000
0110
0000
0110
;

//---------------dance-single - ----------------
#NOTES:
     dance-single:
     :
     Easy:
     4:
     :
0000
0000
0000
0000
,
0000
0000
0000
0000
,
0000
0000
0000
0000
,
0001
0000
0110
0000
,
1001
0000
0000
0000
,
1000
0000
0110
0000
,
1001
0000
0000
0000
,
0000
1000
0000
1001
,
0000
0001
0000
1001
,
0000
1000
0000
1001
,
1000
0000
0010
0000
,
0110
0110
0110
0000
,
0110
0110
0110
0000
,
0000
1000
0000
1001
,
0000
0001
0000
1001
,
0100
0000
0000
0110
,
0010
0000
0000
0110
,
0000
0000
0100
0100
,
0000
0000
0010
0010
,
1001
0000
0001
0000
,
1001
0000
1000
0000
,
1001
0000
0001
0000
,
0100
0100
0100
0100
,
0001
0010
0010
0010
,
1000
0100
0100
0100
,
0001
0010
0010
0010
,
1000
0100
1001
0000
,
0110
0100
0100
0100
,
0110
0000
1001
0000
,
0110
0000
0110
0000
,
1001
0000
1001
0000
,
0110
0100
0100
0100
,
0110
0000
1001
0000
,
0110
0000
0110
0000
,
1001
0000
0000
0000
,
0220
0000
0000
0000
,
0330
0000
0000
0000
,
0010
0001
0110
0000
,
0100
1000
0110
0000
,
1000
1000
0001
0001
,
1000
0001
0100
0001
,
0000
0010
0100
1001
,
0000
0100
0010
1001
,
1000
1000
1000
0110
,
0001
0001
0001
0110
,
0001
0000
1000
0000
,
1000
0000
0001
0000
,
1000
1000
0000
0110
,
0001
0001
0000
0110
,
1000
1000
0110
0110
,
0110
0000
0110
1001
,
0000
0110
0000
1001
,
0001
0110
1000
0110
,
1000
0000
0000
0000
;

//---------------dance-single - ----------------
#NOTES:
     dance-single:
     :
     Medium:
     6:
     :
0000
0000
0000
0000
,
0000
0000
0000
0000
,
0000
0000
0000
0000
,
0011
0000
0110
0110
,
1100
0000
0110
0110
,
0011
0000
0110
0110
,
1100
0000
0110
0110
,
0010
0000
0001
0000
0000
0001
1000
1001
,
0100
0000
1000
0000
0000
1000
0010
0011
,
0100
0000
1000
0000
0000
0001
0010
1010
,
0001
0010
0100
1000
,
0110
0110
0110
0110
0000
0000
0000
0000
,
0110
0110
0110
0110
0000
0000
0000
0000
,
0001
0010
0001
0010
0000
0011
0011
0000
,
0100
1000
0100
1000
0000
1100
1100
0000
,
0010
0000
1000
0000
0101
0101
0101
0000
,
0001
0000
0100
0000
1010
1010
1010
0000
,
0001
0010
0000
0000
0010
0000
0010
0000
,
1000
0010
0000
0000
0100
0000
0100
0000
,
1001
0000
0011
0000
0000
0010
0001
0000
,
1001
0000
1100
0000
0000
0100
1000
0000
,
1001
0000
0011
0000
0000
0010
0001
0000
,
0010
0100
0010
0100
0010
0100
0010
0000
,
1000
0000
0110
0000
0100
0100
0100
0000
,
0001
0000
0011
0000
0010
0010
0010
0000
,
1000
0000
0110
0000
0100
0100
0100
0000
,
0001
0100
0010
0000
1001
0000
0000
0000
,
0011
0010
1010
0010
,
0101
0000
1010
0000
,
0011
0101
0110
0000
,
1010
1100
0110
0000
,
0011
0010
1010
0010
,
0101
0000
1010
0000
,
0011
0101
0110
0000
,
1010
0000
0000
0001
0000
0000
0001
0000
,
0022
0000
0000
0000
,
0033
0000
0000
0000
,
0100
0000
1001
0000
0010
1001
0000
0000
,
0010
0000
1001
0000
0110
1001
0000
0000
,
0001
0010
0001
0000
1000
0010
1000
0000
,
0001
0000
1000
0100
0010
0001
1000
1001
,
0000
0000
0100
0000
0100
0000
0001
1001
,
0000
0000
0010
0000
0010
0000
1000
1001
,
0000
0001
0100
0001
0100
0001
0101
0000
,
0010
1000
0010
1000
0010
1000
1100
0000
,
1000
0000
1001
0101
,
0001
0000
1001
1100
,
0001
0000
0001
0000
0001
0011
0011
0000
,
1000
0000
1000
0000
1000
1010
1010
0000
,
0001
0000
0001
0000
0001
0101
0101
0000
,
0110
0000
0110
1001
,
0000
0001
0011
0000
0100
0010
1001
0000
,
1000
0001
1100
0000
0001
1000
0011
1000
,
0001
0000
0000
0000
;

//---------------dance-single - ----------------
#NOTES:
     dance-single:
     :
     Hard:
     7:
     :
0000
0000
0000
0000
,
0000
0000
0000
0000
,
0000
0000
0000
0000
,
1100
1001
0101
0110
,
1100
0000
0011
0000
1100
0100
0110
0000
,
1100
1001
1010
0110
,
0011
0000
1100
0000
0011
0010
0110
0000
,
1100
1100
1000
0100
0000
1000
0001
1001
,
0000
0010
0001
1000
0000
1000
1100
1100
,
0000
1000
0001
0100
0000
0001
0101
0101
,
1000
1000
0100
0100
0010
0010
0001
0000
,
0110
0110
0110
1000
0000
0001
0001
0001
,
0110
0110
0110
0001
0000
1000
1000
1000
,
0010
1000
0010
1000
0010
1100
1100
0000
,
0010
0001
0010
0001
0010
0011
0011
0000
,
0100
0100
0001
0001
1010
1010
1010
0000
,
1000
1000
0010
0010
0101
0101
0101
0000
,
1000
0100
0000
0001
0100
1000
0100
0000
,
0001
0100
0000
1000
0010
0001
0010
0000
,
1001
0100
1100
0000
0001
0100
1000
0000
,
1001
0010
0011
0000
1000
0010
0001
0000
,
1001
0100
1100
0000
0001
0100
1000
0000
,
0100
1000
0100
0010
0100
1000
0000
0000
,
0001
1000
0110
0000
0010
1000
0010
0000
,
1000
0001
1100
0000
0100
0001
0100
0000
,
0001
1000
0110
0000
0010
1000
0010
0000
,
1000
0010
0100
0001
1001
0000
0000
0000
,
1100
1100
0101
0101
,
1010
0000
0110
0000
0101
0000
1000
1000
,
1100
0000
1010
0000
0110
0000
0001
0001
,
0101
0011
0110
0000
,
1100
1100
0101
0101
,
1010
0000
0110
0000
0101
0000
1000
1000
,
1100
0000
1010
0000
0110
0000
0001
0001
,
0101
0000
0000
1000
0000
1000
1100
1000
,
2200
0000
0000
0000
,
3300
0000
0000
0000
,
0010
0100
1001
0000
0110
1001
0000
0000
,
0100
0010
1001
0000
0110
1001
0001
0100
,
0000
1000
0100
1000
0000
0001
0100
0001
,
0000
1000
0001
0010
0100
1000
0001
1001
,
0000
0010
0010
0010
0100
1000
1100
1001
,
0000
0100
0100
0100
0010
0001
0011
1001
,
0000
1000
0010
1000
0001
1000
1010
0000
,
0100
0001
1000
0001
0100
0001
0011
0000
,
0001
1000
0100
0000
1001
0100
1010
0000
,
1000
0001
0100
0000
1001
0100
0011
0000
,
1000
0001
1000
0000
1000
1100
1100
0000
,
0001
1000
0001
0000
0001
0101
0101
0000
,
1000
0001
1000
0000
1000
1010
1010
0000
,
0110
0001
1000
0010
0101
1000
0110
0000
,
0000
1000
1100
0000
0010
0100
1001
0000
,
0001
1000
0011
0000
1000
0001
1100
0001
,
1000
0000
0000
0000
;
