#TITLE:Walking On Sunshine;
#ARTIST:The Flash;
#BANNER:Walking On Sunshine.png;
#BACKGROUND:Walking On Sunshine-bg.png;
#CDTITLE:./CDTITLES/DanceDanceRevolution HOTTEST PARTY 2.png;
#MUSIC:Walking On Sunshine.ogg;
#SAMPLESTART:57.784;
#SAMPLELENGTH:15;
#DISPLAYBPM:110;
#BPMS:0=109.5;

//---------------dance-single - ----------------
#NOTES:
     dance-single:
     :
     Beginner:
     1:
     :
0000
0000
0000
0000
,
0000
0000
0000
0000
,
0000
0000
0000
0000
,
1000
1000
0000
0000
,
0001
0001
0000
0000
,
0000
1001
0000
0100
,
0000
0001
0001
0000
,
0000
1001
0000
0010
,
0000
1000
1000
0000
,
0001
0000
0010
0000
,
0001
0000
0100
0000
,
0010
0000
0000
0000
,
0100
0000
0000
0000
,
1000
0000
0100
0000
,
1000
0000
0010
0000
,
0100
0000
0000
0000
,
0010
0000
0000
0000
,
1000
0000
1000
0000
,
0100
0000
0000
0000
,
1000
0000
1000
0000
,
0100
0000
0000
0000
,
1000
0000
1000
0000
,
0100
0000
0000
0000
,
0000
1001
0000
0100
,
0000
0001
0001
0000
,
0000
1001
0000
0010
,
0000
1000
1000
0000
,
0001
0000
0001
0000
,
0010
0000
0000
0000
,
0001
0000
0001
0000
,
0010
0000
0000
0000
,
0001
0000
0001
0000
,
0010
0000
0000
0000
,
0000
1001
0000
0100
,
0000
0001
0001
0000
,
0000
1001
0000
0010
,
0000
1000
1000
0000
,
1001
0000
0010
0000
,
0100
0000
0000
0000
,
1001
0000
0100
0000
,
0010
0000
0000
0000
,
0000
1001
0000
0001
,
1000
1000
1000
0000
,
0000
0110
0000
1000
,
0001
0001
0001
0000
,
1001
0000
0000
0000
;

//---------------dance-single - ----------------
#NOTES:
     dance-single:
     :
     Easy:
     3:
     :
0000
0000
0000
0000
,
0000
0000
0000
0000
,
0000
0000
0000
0000
,
1001
1001
0000
0000
,
1001
1001
0000
0000
,
0001
1001
0000
0100
,
0010
0001
0100
0000
,
1000
1001
0000
0010
,
0100
1000
0010
0000
,
1000
0100
0000
0100
,
1000
0000
0100
1000
,
0200
0000
0010
0310
,
0020
0000
0100
0130
,
0001
0010
0000
0010
,
0001
0000
0010
0001
,
0020
0000
0100
0130
,
0200
0000
0010
0310
,
0010
0000
0100
0000
,
0010
0000
1000
0000
,
0100
0000
0010
0000
,
0100
0000
1000
0000
,
0010
0000
0100
0000
,
0010
0000
0001
0000
,
1000
1001
0000
0010
,
0100
1000
0010
0000
,
0001
1001
0000
0100
,
0010
0001
0100
0000
,
0100
0000
0010
0000
,
0100
0000
0001
0000
,
0010
0000
0100
0000
,
0010
0000
0001
0000
,
0100
0000
0010
0000
,
0100
0000
0100
0000
,
1000
1001
0000
0100
,
0010
1000
0100
0000
,
0001
1001
0000
0010
,
0100
0001
0010
0000
,
2000
3000
0002
0003
,
2000
3000
0010
0100
,
0002
0003
2000
3000
,
0002
0003
0000
0000
,
0000
1001
0000
0001
,
0100
1000
0001
0100
,
0000
0110
0000
1000
,
0010
0001
1000
0000
,
1001
0000
0000
0000
;

//---------------dance-single - ----------------
#NOTES:
     dance-single:
     :
     Medium:
     5:
     :
0000
0000
0000
0000
,
0000
0000
0000
0000
,
0000
0000
0000
0000
,
0000
1001
0000
1001
0000
0100
0010
0000
,
0000
1001
0000
1001
0000
0010
0100
0000
,
0001
0100
0101
0000
1000
0000
0100
0000
,
0010
0000
0001
0010
0100
0000
0000
0000
,
1000
0010
1010
0000
0001
0000
0010
0000
,
0100
0000
1000
0100
0010
0000
0000
0000
,
1000
0100
0001
0000
1000
0100
0001
0000
,
1000
0100
0001
0000
1000
0100
0001
0000
,
0200
1000
0000
1300
,
0020
0100
0100
0130
,
0001
0100
1000
0000
0001
0100
1000
0000
,
0001
0100
1000
0000
0001
0100
1000
0000
,
0020
0001
0000
0031
,
0200
0010
0010
0310
,
0010
0010
1000
0000
0100
0000
1100
0000
,
0010
0010
0100
0000
0000
0000
0110
0000
,
0100
0100
0001
0000
0010
0000
0011
0000
,
0100
0100
0010
0000
0000
0000
1001
0000
,
0010
0010
0001
0000
0100
0000
0101
0000
,
0010
0010
0100
0000
0001
1000
0001
1001
,
0000
0011
1000
0010
,
0100
0000
0001
0100
0010
0000
0000
0000
,
1000
0100
1100
0000
0001
0000
0100
0000
,
0010
0000
1000
0010
0100
0000
0000
0000
,
0100
0100
0001
0000
0010
0000
0011
0000
,
0100
0100
0010
0000
0000
0000
1001
0000
,
0010
0010
1000
0000
0100
0000
1100
0000
,
0010
0010
0100
0000
0000
0000
0110
0000
,
0100
0100
1000
0000
0010
0000
1010
0000
,
0100
0100
0010
0000
1000
0001
1000
1001
,
0000
1010
0001
0010
,
0100
0000
1000
0100
0010
0000
0000
0000
,
0100
0001
0101
0000
1000
0000
0100
0000
,
0010
0000
0001
0010
0100
0000
1000
0000
,
0001
0001
0000
0010
0010
0000
0000
1000
,
1000
0000
0000
0100
0100
0000
1001
1000
,
1000
0000
0000
0010
0010
0000
0000
0100
,
0100
0000
0000
0000
0220
0000
0000
0330
,
0000
1001
0010
0001
,
0100
0000
1000
0100
0001
0000
0100
0000
,
0010
0100
0110
0000
1000
0000
0100
0000
,
0001
0000
0010
0001
0100
0010
0100
0000
,
1001
1001
0000
0000
0000
0000
0000
0000
;

//---------------dance-single - ----------------
#NOTES:
     dance-single:
     :
     Hard:
     7:
     :
0000
0000
0000
0000
,
0000
0000
0000
0000
,
0000
0000
0000
0000
,
0100
1001
0100
1001
0010
0001
0100
0000
,
0100
1001
0100
1001
0020
0000
0230
0000
,
1300
1000
1100
0000
0001
0010
0100
0010
,
0000
0100
0001
0100
0020
0000
0230
0000
,
0301
0001
0101
0000
1000
0100
0010
0100
,
0000
0010
1000
0010
0200
0000
0300
0000
,
1000
0100
0001
0100
1000
0100
0001
0100
,
1000
0100
0001
0100
1000
0010
0100
0001
,
0010
0100
0010
0000
0010
0100
1010
0000
,
0100
0010
0100
0000
0100
0010
1100
0000
,
0001
0100
1000
0100
0001
0100
1000
0100
,
0001
0100
1000
0100
0001
0100
0010
1000
,
0100
0010
0100
0000
0100
0010
0101
0000
,
0010
0100
0010
0000
1000
0100
0010
1000
,
0100
0010
0002
0000
0000
0100
0000
0103
,
0000
1000
0100
0000
1000
0010
0100
1000
,
0010
0100
0002
0000
0000
0010
0000
0013
,
0000
1000
0010
0000
0001
0010
0100
0001
,
0010
0100
2000
0000
0000
0100
0000
3100
,
0000
0001
0100
0000
1000
0010
0100
1001
,
0000
0000
1100
0000
1000
0010
0100
0010
,
0000
0100
1000
0100
0020
0001
0032
0000
,
0103
0000
0101
0000
0001
0100
0010
0100
,
0000
0010
0001
0010
0001
0100
0010
0001
,
0100
0010
2000
0000
0000
0100
0000
3100
,
0000
0001
0100
0000
0001
0010
0100
0001
,
0010
0100
2000
0000
0000
0010
0000
3010
,
0000
0001
0010
0000
1000
0010
0100
1000
,
0010
0100
0002
0000
0000
0100
0000
0103
,
0000
1000
0100
0000
0001
0010
0100
1001
,
0000
0000
0011
0000
0001
0100
0010
0100
,
0000
0010
0001
0010
0200
1000
2300
0000
,
3010
0000
1010
0000
1000
0010
0100
0010
,
0000
0100
1000
0100
1000
0010
0100
0000
,
0001
0010
0001
0000
0001
1000
0001
0000
,
0010
1000
0010
1000
0001
0000
1001
0000
,
1000
0010
1000
0000
1000
0001
1000
0000
,
0010
0001
0010
0000
1000
0001
1000
0001
,
0010
0010
0011
0000
1000
0100
0001
0010
,
0100
1000
0001
0100
0020
1000
2030
0000
,
3100
0100
1100
0000
0001
0010
1000
0100
,
0010
0001
1000
0010
1000
0001
1000
0001
,
0110
0110
0000
0000
0000
0000
0000
0000
;
