#TITLE:Umbrella;
#ARTIST:Haley Hunt;
#BANNER:Umbrella.png;
#BACKGROUND:Umbrella-bg.png;
#CDTITLE:./CDTITLES/DanceDanceRevolution HOTTEST PARTY 2.png;
#MUSIC:Umbrella.ogg;
#SAMPLESTART:31.617;
#SAMPLELENGTH:15;
#BPMS:0=127;

//---------------dance-single - ----------------
#NOTES:
     dance-single:
     :
     Beginner:
     1:
     :
0000
0000
0000
0000
,
0000
0000
0000
0000
,
0000
0000
0000
0000
,
0001
0000
0000
0000
,
0000
0000
0000
0000
,
0001
0000
0000
0000
,
0000
0000
0000
0000
,
0001
0000
0000
0000
,
0000
0000
0000
0000
,
1000
0000
0000
0000
,
0001
0000
0000
0000
,
1000
0000
0000
0000
,
1000
0000
0000
0000
,
0001
0000
0000
0000
,
1000
0000
0000
0000
,
0001
0000
0000
0000
,
0001
0000
0000
0000
,
1000
0000
0000
0000
,
1000
0000
0000
0000
,
1000
0000
0000
0000
,
1000
0000
0000
0000
,
0001
0000
0000
0000
,
0001
0000
0000
0000
,
0001
0000
0000
0000
,
0001
0000
0000
0000
,
0001
0000
0000
0000
,
0000
0000
0000
0000
,
0001
0000
0000
0000
,
0000
0000
0000
0000
,
1000
0000
0000
0000
,
0000
0000
0000
0000
,
1000
0000
0000
0000
,
0000
0000
0000
0000
,
0001
0000
0000
0000
,
1000
0000
0000
0000
,
0001
0000
0000
0000
,
0001
0000
0000
0000
,
1000
0000
0000
0000
,
0001
0000
0000
0000
,
1000
0000
0000
0000
,
1000
0000
0000
0000
,
1000
0000
0000
0000
,
1000
0000
0000
0000
,
1000
0000
0000
0000
,
1000
0000
0000
0000
,
0001
0000
0000
0000
,
0001
0000
0000
0000
,
0001
0000
0000
0000
,
0001
0000
0000
0000
,
1000
0000
0000
0000
;

//---------------dance-single - ----------------
#NOTES:
     dance-single:
     :
     Easy:
     3:
     :
0000
0000
0000
0000
,
0000
0000
0000
0000
,
0000
0000
0000
0000
,
0100
0000
0000
0000
,
0010
0000
0000
0000
,
0001
0000
0000
0000
,
1000
0000
0000
0000
,
0010
0000
0000
0000
,
0100
0000
0000
0000
,
0001
0001
0000
0000
,
1000
1000
0000
0000
,
0100
0000
1000
0000
,
0010
0010
0000
0000
,
0001
0001
0000
0000
,
1000
1000
0000
0000
,
0001
1000
0000
0010
,
0100
0100
0000
0000
,
0000
1000
0010
1000
,
0000
0010
0100
0010
,
0000
0001
0100
0001
,
0000
0001
1000
0001
,
0000
1000
0010
1000
,
0000
0010
0100
0010
,
0000
0001
0100
0001
,
0000
0001
1000
0001
,
0100
0000
0000
0001
,
0000
0000
1000
0000
,
0010
0000
0000
1000
,
0000
0000
0001
0000
,
0100
0000
0000
0001
,
0000
0000
1000
0000
,
0010
0000
0000
1000
,
0000
0000
0000
0000
,
0001
0001
0000
0000
,
1000
1000
0000
0000
,
0001
0001
0000
0000
,
0001
1000
0000
0000
,
0001
0001
0000
0000
,
1000
1000
0000
0000
,
0001
0001
0000
0000
,
0100
0100
0000
0000
,
0000
0001
0100
0001
,
0000
0100
0010
0100
,
0000
1000
0010
1000
,
0000
1000
0001
1000
,
0000
0001
0100
0001
,
0000
0100
0010
0100
,
0000
1000
0010
1000
,
0000
1000
0001
1000
,
0100
0000
0000
0000
;

//---------------dance-single - ----------------
#NOTES:
     dance-single:
     :
     Medium:
     5:
     :
0000
0000
0000
0000
,
0000
0000
0000
0000
,
0000
0000
0000
0000
,
0010
0000
0010
0000
,
0100
0000
0100
0000
,
0001
0000
0001
0000
,
1000
0000
1000
0000
,
0100
0000
0100
0000
,
0010
0000
0010
0000
,
0001
0000
0001
0000
1000
0001
0010
0000
,
1000
0000
1000
0000
0001
1000
0100
0000
,
0010
0000
0001
0000
1000
0001
0010
0000
,
0100
0100
0000
0000
,
0001
0000
0001
0000
1000
0001
0100
0000
,
1000
0000
1000
0000
0001
1000
0010
0000
,
0001
1000
0000
0100
,
0010
0010
0000
0000
,
1000
0000
1000
0000
0001
0000
0010
0010
,
1000
0000
0001
0000
1000
0000
0010
0010
,
0001
0000
1000
0000
0001
0000
0100
0100
,
1000
0000
0001
0000
0001
0000
0010
0010
,
0010
0000
0001
0000
0010
0000
0010
0010
,
0001
0000
1000
0000
0010
0000
0010
0010
,
1000
0000
0001
0000
0001
0000
1000
1000
,
0010
0000
1000
0000
1000
0000
0001
0001
,
0010
0010
0010
0001
,
0001
0001
1000
0010
,
0100
0100
0100
1000
,
1000
1000
0001
0100
,
0010
0010
0010
0001
,
0001
0001
1000
0010
,
0100
0100
0100
1000
,
1000
1000
1000
0000
,
0001
0000
0001
0000
1000
0010
0100
0000
,
1000
0000
1000
0000
0001
0010
0100
0000
,
0001
0000
0001
0000
1000
0100
0010
0000
,
0001
1000
0000
0000
,
0001
0000
0001
0000
1000
0010
0100
0000
,
1000
0000
1000
0000
0001
0010
0100
0000
,
0001
1000
0001
0000
0000
0000
0000
0000
,
0010
0100
0010
0000
0000
0000
0000
0000
,
0001
0000
0001
0000
0100
0000
0001
1000
,
0010
0000
1000
0000
0010
0000
1000
0001
,
0010
0000
0001
0000
0010
0000
0001
1000
,
0010
0000
1000
0000
0100
0000
1000
0001
,
0010
0000
1000
0000
0010
0000
1000
0001
,
0010
0000
0001
0000
0100
0000
0001
1000
,
0010
0000
1000
0000
0100
0000
1000
0001
,
0010
0000
0001
0000
0010
1000
0001
1000
,
0010
0000
0000
0000
;

//---------------dance-single - ----------------
#NOTES:
     dance-single:
     :
     Hard:
     7:
     :
0000
0000
0000
0000
,
0000
0000
0000
0000
,
0000
0000
0000
0000
,
0100
0000
0100
0000
,
0010
0000
0010
0000
,
1000
0001
1000
0001
,
0010
0100
0010
0100
,
0010
0000
0010
0000
,
0100
0000
0100
0000
,
1000
0000
0000
1000
0100
0000
0010
0000
0001
0000
0010
0000
0100
0000
0000
0000
,
0001
0000
0000
0001
0010
0000
0100
0000
1000
0000
0100
0000
0010
0000
0000
0000
,
0001
0000
1000
0100
1000
0010
1000
0000
,
0001
1000
0001
0000
0000
0000
0000
0000
,
1000
0000
0000
1000
0010
0000
0100
0000
0001
0000
0100
0000
0010
0000
0000
0000
,
0001
0000
0000
0001
0100
0000
0010
0000
1000
0000
0010
0000
0100
0000
0000
0000
,
1000
0000
0001
0010
0001
0100
0001
0000
,
1000
0001
1000
0000
0000
0000
0000
0000
,
0001
0000
0000
0000
0001
0000
0100
0000
1000
0000
0001
0000
0100
0000
0000
0100
,
0001
0000
0000
0000
1000
0000
0100
0000
0001
0000
1000
0000
0100
0000
0000
0100
,
1000
0000
0000
0000
0001
0000
0010
0000
1000
0000
0001
0000
0010
0000
0000
0010
,
0001
0000
1000
0100
1000
0010
0100
0100
,
0100
0000
0000
0000
1000
0000
0001
0000
0100
0000
1000
0000
0100
0000
0000
0010
,
1000
0000
0000
0000
0001
0000
1000
0000
0100
0000
0010
0000
0100
0000
0000
0010
,
0001
0000
0000
0000
1000
0000
0100
0000
1000
0000
0010
0000
0001
0000
0000
1000
,
0100
0000
0000
0000
0001
0000
0010
0000
0001
0000
0100
0000
1000
0000
0000
0001
,
0100
0100
0100
1000
,
1000
0000
1000
0000
0001
1000
0100
0000
,
0010
0010
0010
0001
,
0001
0000
0001
0000
1000
0001
0010
0000
,
0100
0100
0100
1000
,
1000
0000
1000
0000
0001
1000
0100
0000
,
0010
0010
0010
0001
,
0001
0001
0001
0000
,
1000
0000
0001
0000
1000
0100
0000
0000
0001
0000
0001
0000
0010
0000
0000
0000
,
0001
0000
1000
0000
0001
0100
0000
0000
1000
0000
1000
0000
0010
0000
0000
0000
,
1000
0000
0001
0000
1000
0010
0000
0000
0001
0000
0001
0000
0100
0000
0000
0000
,
1000
0010
1000
0100
0001
0100
1000
0000
,
1000
0000
0001
0000
1000
0100
0000
0000
0001
0000
0001
0000
0010
0000
0000
0000
,
0001
0000
1000
0000
0001
0100
0000
0000
1000
0000
1000
0000
0010
0000
0000
0000
,
0001
0100
0001
0010
1000
0010
0001
0000
,
0100
0010
0100
0100
0100
0000
0000
0000
,
1000
0000
0000
0000
1000
0000
0100
0000
0010
0000
0001
0000
1000
0000
0000
0001
,
0100
0000
0000
0000
0001
0000
0010
0000
0100
0000
1000
0000
0001
0000
0000
1000
,
0100
0000
0000
0000
1000
0000
0010
0000
0100
0000
0001
0000
1000
0000
0000
0001
,
0100
0000
0001
0100
0010
1000
0001
1000
,
0100
0000
0000
0000
0001
0000
0010
0000
0100
0000
1000
0000
0001
0000
0000
1000
,
0100
0000
0000
0000
1000
0000
0100
0000
0010
0000
0001
0000
1000
0000
0000
0001
,
0100
0000
0000
0000
0001
0000
0100
0000
0010
0000
1000
0000
0001
0000
0000
1000
,
0100
0000
0000
0000
1000
0000
0010
0000
0100
0000
0001
0000
1000
0000
0000
0001
,
0100
0000
0000
0000
;
