#TITLE:Tribulations;
#ARTIST:LCD Soundsystem;
#BANNER:Tribulations.png;
#BACKGROUND:Tribulations-bg.png;
#CDTITLE:./CDTITLES/DanceDanceRevolution HOTTEST PARTY 2.png;
#MUSIC:Tribulations.ogg;
#SAMPLESTART:9.113;
#SAMPLELENGTH:15;
#BPMS:0=132;

//---------------dance-single - ----------------
#NOTES:
     dance-single:
     :
     Beginner:
     1:
     :
0000
0000
0000
0000
,
0000
0000
0000
0000
,
0000
0000
0000
0000
,
0000
0000
0000
0000
,
1000
0000
0000
0000
,
0000
0000
0000
0000
,
1000
0000
0000
0000
,
0000
0000
0000
0000
,
0010
0000
0000
0000
,
0000
0000
0000
0000
,
0100
0000
0000
0000
,
0000
0000
0000
0000
,
0001
0000
0000
0000
,
0000
0000
0000
0000
,
0001
0000
0000
0000
,
0000
0000
0000
0000
,
0100
0000
0000
0000
,
0000
0000
0000
0000
,
0010
0000
0000
0000
,
0000
0000
0000
0000
,
0000
0001
0000
0000
,
0001
0000
0000
0000
,
0010
0000
0000
0000
,
0010
0000
0000
0000
,
0000
1000
0000
0000
,
1000
0000
0000
0000
,
0100
0000
0000
0000
,
0100
0000
0000
0000
,
1000
0000
0000
0000
,
0000
0000
0000
0000
,
1000
0000
0000
0000
,
0000
0000
0000
0000
,
0010
0000
0000
0000
,
0000
0000
0000
0000
,
0100
0000
0000
0000
,
0000
0000
0000
0000
,
0001
0000
0000
0000
,
0000
0000
0000
0000
,
0001
0000
0000
0000
,
0000
0000
0000
0000
,
0100
0000
0000
0000
,
0000
0000
0000
0000
,
0010
0000
0000
0000
,
0000
0000
0000
0000
,
0000
0001
0000
0000
,
0001
0000
0001
0000
,
0010
0000
0000
0000
,
0010
0000
0010
0000
,
0000
1000
0000
0000
,
1000
0000
1000
0000
,
0100
0000
0000
0000
,
0100
0000
0100
0000
,
0010
0000
0000
0000
;

//---------------dance-single - ----------------
#NOTES:
     dance-single:
     :
     Easy:
     2:
     :
0000
0000
0000
0000
,
0000
0000
0000
0000
,
0000
0000
0000
0000
,
0000
0000
0000
0000
,
1000
0000
0000
0000
,
0010
0000
0000
0000
,
1000
0000
0001
0000
,
0100
0000
0010
0000
,
0010
0000
0000
0000
,
0100
0000
1000
0000
,
0100
0000
0000
0000
,
0010
0000
0010
0000
,
0001
0000
0000
0000
,
0100
0000
0000
0000
,
0001
0000
1000
0000
,
0010
0000
0100
0000
,
0100
0000
0000
0000
,
0010
0000
0000
0000
,
0001
0000
0000
0000
,
0100
0000
0100
0000
,
0000
0001
0000
0001
,
0001
0000
0000
0000
,
0010
0000
0100
0000
,
0010
0000
0001
0000
,
0000
1000
0000
1000
,
1000
0000
0000
0000
,
0100
0000
0010
0000
,
0100
0000
1000
0000
,
1000
0000
0000
0000
,
0010
0000
0000
0000
,
1000
0000
0001
0000
,
0100
0000
0010
0000
,
0010
0000
0000
0000
,
0100
0000
1000
0000
,
0100
0000
0000
0000
,
0010
0000
0010
0000
,
0001
0000
0000
0000
,
0100
0000
0000
0000
,
0001
0000
1000
0000
,
0010
0000
0100
0000
,
0100
0000
0000
0000
,
0010
0000
0000
0000
,
0001
0000
0000
0000
,
0100
0000
0100
0000
,
0000
0001
0000
0001
,
0001
0000
1000
0000
,
0010
0000
0100
0000
,
0010
0000
0001
0000
,
0000
1000
0000
1000
,
1000
0000
0001
0000
,
0100
0000
0010
0000
,
0100
0000
1000
0000
,
0110
0000
0000
0000
;

//---------------dance-single - ----------------
#NOTES:
     dance-single:
     :
     Medium:
     4:
     :
0000
0000
0000
0000
,
0000
0000
0000
0000
,
0000
0000
0000
0000
,
0000
0000
0000
0000
,
0100
0000
1000
0000
0100
0000
0001
0001
,
0100
0001
1000
0001
,
1000
0100
0010
0001
,
1001
0000
0000
0000
,
0100
0000
0001
0000
0100
0000
1000
1000
,
0100
1000
0001
1000
,
0001
0100
0010
1000
,
0110
0000
1001
0000
,
0010
0000
0001
0000
0010
0000
1000
1000
,
0010
1000
0001
1000
,
0001
0010
0100
1000
,
1001
0000
0000
0000
,
0100
0000
1000
0000
0100
0000
0001
0001
,
0100
0001
1000
0001
,
1000
0100
0010
0001
,
0110
0000
1001
0000
,
0100
1000
0100
0001
,
0200
0000
0010
0310
,
1000
0000
0001
0000
,
2000
3000
0200
0300
,
0010
0001
0010
1000
,
0020
0000
0100
0130
,
0001
0000
1000
0000
,
0002
0003
0020
0030
,
1000
0000
1000
0000
0100
0000
1000
0001
,
0010
0010
0010
0000
,
0100
1000
0001
0010
,
1001
0000
0000
0000
,
0001
0000
0001
0000
0010
0000
0001
1000
,
0100
0100
0100
0000
,
0010
0001
1000
0100
,
0110
0000
1001
0000
,
0001
0000
0001
0000
0100
0000
0001
1000
,
0010
0010
0010
0000
,
0100
0001
1000
0010
,
1001
0000
0000
0000
,
1000
0000
1000
0000
0010
0000
1000
0001
,
0100
0100
0100
0000
,
0010
1000
0001
0100
,
0110
0000
1001
0000
,
1000
1000
0000
1000
0000
1000
0000
1000
,
0100
0100
0000
0100
0000
0100
0000
0100
,
0010
0010
0000
0010
0000
0010
0000
0010
,
0001
0001
0000
0001
0000
0001
0000
0001
,
1000
1000
0000
1000
0000
1000
0000
1000
,
0100
0100
0000
0100
0000
0100
0000
0100
,
0011
1100
0110
1001
,
1100
0011
0110
1001
,
0100
0000
0000
0000
;

//---------------dance-single - ----------------
#NOTES:
     dance-single:
     :
     Hard:
     6:
     :
0000
0000
0000
0000
,
0000
0000
0000
0000
,
0000
0000
0000
0000
,
0000
0000
0000
0000
,
0100
0000
0000
0001
1000
0100
1000
0001
,
1000
0000
0000
0100
0010
0100
1001
0000
,
1000
0000
0000
0100
0010
0100
1001
0000
,
1000
0100
0010
0001
,
1000
0000
0100
0010
0000
0010
0100
0000
,
0010
0000
0000
1000
0001
0010
0001
1000
,
0001
0000
0000
0010
0100
0010
1001
0000
,
0001
0010
0100
1000
,
0001
0010
0000
0010
0100
0000
1001
0000
,
0100
0000
0000
0001
1000
0100
1000
0001
,
1000
0000
0000
0100
0010
0100
1001
0000
,
1000
0100
0010
0001
,
0001
0000
0010
0100
0000
0100
0010
0000
,
0010
0000
0000
1000
0001
0010
0001
1000
,
0001
0000
0000
0010
0100
0010
1001
0000
,
0001
0010
0100
1000
,
0001
0010
0000
0100
0010
0000
0100
1000
,
0100
1000
0100
0001
,
0200
0000
0010
0310
,
1000
0001
0001
1000
,
2000
0100
3100
0000
0200
0010
0310
0000
,
0010
0001
0010
1000
,
0020
0000
0100
0130
,
0001
1000
1000
0001
,
0002
0010
0013
0000
0020
0100
0130
0000
,
0100
0000
0000
0001
0001
0100
1000
0000
,
1000
0100
0010
0000
0010
0100
1000
0000
,
1001
0001
0100
0000
1100
1000
0100
0000
,
1000
0000
0010
0100
0000
0100
0001
0000
,
0010
0000
0000
1000
1000
0010
0001
0000
,
0001
0010
0100
0000
0100
0010
0001
0000
,
1001
1000
0010
0000
0011
0001
0010
0000
,
0001
0010
0000
0100
1000
0000
1001
0000
,
0010
0010
1000
0000
0100
0000
0010
0001
,
0010
0001
1001
0000
0010
0100
1001
0000
,
1000
0100
0010
0001
,
1000
0000
0100
0010
0000
0010
0100
0000
,
0100
0100
0001
0000
0010
0000
0100
1000
,
0100
1000
1001
0000
0100
0010
1001
0000
,
0001
0010
0100
1000
,
0001
0010
0000
0100
1000
0000
0110
0000
,
1000
1000
0000
1000
0000
1000
0100
0010
,
0001
0001
0000
0001
0000
0001
1000
0001
,
1100
1010
0101
1100
,
0110
0000
0101
0000
1100
1000
1000
0000
,
0001
0001
0000
0001
0000
0001
0100
0010
,
1000
1000
0000
1000
0000
1000
0001
1000
,
0011
0101
1010
0011
,
0110
0000
1010
0000
0011
0001
0001
0001
,
0101
0000
0000
0000
;
