#TITLE:Red Alert;
#ARTIST:Basement Jaxx;
#BANNER:Red Alert.png;
#BACKGROUND:Red Alert-bg.png;
#CDTITLE:./CDTITLES/DanceDanceRevolution HOTTEST PARTY 2.png;
#MUSIC:Red Alert.ogg;
#SAMPLESTART:27.864;
#SAMPLELENGTH:15;
#DISPLAYBPM:127;
#BPMS:0=126.9;

//---------------dance-single - ----------------
#NOTES:
     dance-single:
     :
     Beginner:
     1:
     :
0000
0000
0000
0000
,
0000
0000
0000
0000
,
0000
0000
0000
0000
,
1000
0000
0100
0000
,
1000
0000
0001
0000
,
1000
0000
0010
0000
,
0001
0000
1000
0000
,
1001
0000
0000
0000
,
0100
0000
0000
0000
,
0010
0000
0000
0000
,
1000
0000
0000
0000
,
1001
0000
0000
0000
,
0010
0000
0000
0000
,
0100
0000
0000
0000
,
0001
0000
0000
0000
,
0000
1001
0000
1001
,
0000
1001
0000
0000
,
0010
0000
0000
0000
,
0100
0000
0000
0000
,
0000
1001
0000
1001
,
0000
1001
0000
0000
,
0010
0000
0000
0000
,
0100
0000
0000
0000
,
1000
0000
0100
0100
,
0100
0000
0000
0000
,
0001
0000
0100
0100
,
0100
0000
0000
0000
,
0000
1001
0000
1001
,
0000
1001
0000
0000
,
0100
0000
0000
0000
,
0010
0000
0000
0000
,
0000
0010
0000
0000
,
1000
1000
1000
0000
,
0000
0100
0000
0000
,
0001
0001
0001
0000
,
1000
0000
0000
0000
,
0010
0000
0100
0000
,
0001
0000
0000
0000
,
0000
0000
0000
0000
,
0001
0000
0010
0000
,
0001
0000
1000
0000
,
0001
0000
0100
0000
,
1000
0000
0001
0000
,
0000
1001
0000
1001
,
0000
1001
0000
0000
,
0010
0000
0000
0000
,
0100
0000
0000
0000
,
0000
1001
0000
1001
,
0000
1001
0000
0000
,
0010
0000
0000
0000
,
0100
0000
0000
0000
,
1001
0000
0000
0000
;

//---------------dance-single - ----------------
#NOTES:
     dance-single:
     :
     Easy:
     3:
     :
0000
0000
0000
0000
,
0000
0000
0000
0000
,
0000
0000
0000
0000
,
1000
0100
1000
0000
,
0001
0000
1000
0000
,
1000
0010
1000
0000
,
0001
0000
0100
0000
,
1000
1000
1000
0000
,
0100
0000
0010
0000
,
0100
0000
0000
0001
,
1000
0001
0000
0000
,
0001
0001
0001
0000
,
0100
0000
0010
0000
,
0100
0000
0000
1000
,
0001
1000
0000
0000
,
0000
0110
0000
1001
,
0000
0010
0000
1000
,
0010
0000
0000
0000
,
1000
0100
0000
0000
,
0000
0110
0000
1001
,
0000
0010
0000
0001
,
0010
0000
0000
0000
,
0001
0100
0000
0000
,
0100
0000
0100
0000
,
0100
0000
0000
0000
,
0010
0000
0010
0000
,
0010
0000
0000
0000
,
0000
0110
0000
1001
,
0000
0100
0000
1000
,
0100
0000
0000
0000
,
1000
0010
0000
0000
,
0000
0100
0100
0000
,
0001
0001
0001
0001
,
0000
0010
0010
0000
,
1000
1000
1000
1000
,
0001
0000
0000
0000
,
0010
0000
0100
0000
,
1000
0000
0000
0000
,
0200
0000
0300
0000
,
0001
0010
0001
0000
,
1000
0000
0001
0000
,
0001
0100
0001
0000
,
1000
0000
0010
0000
,
0000
0110
0000
1001
,
0000
0100
0000
0001
,
0100
0000
0000
0000
,
0001
0010
0000
0000
,
0000
0110
0000
1001
,
0000
0100
0000
1000
,
0100
0000
0000
0000
,
1000
0010
0000
0000
,
1001
0000
0000
0000
;

//---------------dance-single - ----------------
#NOTES:
     dance-single:
     :
     Medium:
     5:
     :
0000
0000
0000
0000
,
0000
0000
0000
0000
,
0000
0000
0000
0000
,
1000
0000
0010
0000
1000
0100
1000
0000
,
0001
0010
1000
0011
,
1000
0000
0100
0000
1000
0010
1000
0000
,
0001
0100
0020
0030
,
1000
0100
1000
0100
1000
0000
0001
0000
,
0100
0000
0000
0000
0010
0010
0010
0000
,
0100
1000
0001
0010
,
0100
1000
0001
0000
0010
0000
0100
0000
,
0001
0010
0001
0010
0001
0000
1000
0000
,
0010
0000
0000
0000
0100
0100
0100
0000
,
0010
0001
1000
0100
,
0010
0001
1000
0000
0100
0000
0010
0000
,
0001
0011
0001
0101
,
1000
0010
0100
0001
,
0020
0000
0230
0000
,
2300
0000
3001
0100
,
0001
0101
0001
0011
,
1000
0100
0010
0001
,
0200
0000
0320
0000
,
2030
0000
3001
0010
,
0200
0000
0000
1000
1000
0000
0000
1000
,
1000
0300
1000
0010
,
0200
0000
0000
0001
0001
0000
0000
0001
,
0001
0300
0001
0010
,
1000
1100
1000
1010
,
0001
0100
0010
1000
,
0200
0000
0320
0000
,
0032
0000
1003
0010
,
1000
0000
0000
0000
0010
0000
0000
0000
0100
0000
0000
0100
0000
0000
0100
0000
,
0001
0010
0001
0100
0001
0010
0001
0000
,
0001
0000
0000
0000
0100
0000
0000
0000
0010
0000
0000
0010
0000
0000
0010
0000
,
1000
0100
1000
0010
1000
0100
1000
0000
,
0001
0000
0100
0000
,
0010
0000
1000
0100
,
1000
0000
0010
0000
,
0200
0000
0300
0000
,
0001
0000
0100
0000
0001
0010
0001
0000
,
1000
0100
0001
1100
,
0001
0000
0010
0000
0001
0100
0001
0000
,
1000
0010
0200
0300
,
1000
1100
1000
1010
,
0001
0100
0010
1000
,
0200
0000
0320
0000
,
0032
0000
1003
0010
,
1000
1100
1000
1010
,
0001
0100
0010
1000
,
0200
0000
0320
0000
,
0032
0000
1003
0010
,
0101
0000
0000
0000
;

//---------------dance-single - ----------------
#NOTES:
     dance-single:
     :
     Hard:
     6:
     :
0000
0000
0000
0000
,
0000
0000
0000
0000
,
0000
0000
0000
0000
,
1000
0010
0100
0000
0010
0001
0100
0000
,
0010
1000
0100
0000
0010
0000
1100
0000
,
1000
0100
0010
0000
0100
0001
0010
0000
,
0100
1000
0010
0000
0200
0000
0300
0000
,
1000
0100
1000
0010
1000
0001
0100
0000
,
0010
0000
0000
0000
0100
0100
0100
1000
,
0001
0010
0100
0000
0100
0010
0001
0000
,
0110
0010
0011
0000
0200
0000
0300
0000
,
0001
0100
0001
0010
0001
1000
0100
0000
,
0010
0000
0000
0000
0100
0100
0100
0001
,
1000
0010
0100
0000
0100
0010
1000
0000
,
0110
0010
1010
0000
0200
0000
0300
0000
,
0001
0011
1000
1010
,
0100
0000
0101
0000
0010
1000
0010
0000
,
0200
0301
0020
1030
,
0200
0310
0101
1010
,
0001
0101
1000
1100
,
0010
0000
0011
0000
0100
1000
0100
0000
,
0020
0031
0200
1300
,
0020
0130
0001
1100
,
0120
0000
0000
1000
1000
0000
0000
0100
,
0100
0030
1000
0101
,
0120
0000
0000
0001
0001
0000
0000
0100
,
0100
0030
1100
0011
,
1000
1010
0001
0011
,
0100
0000
1100
0000
0010
0001
0010
0000
,
0200
1300
0020
0031
,
0200
0310
1000
0011
,
0001
0000
0000
0000
0010
0000
0000
0000
0100
0000
0000
0100
0000
0000
0100
0000
,
1000
1010
1000
1010
1000
1010
0010
0100
,
1000
0000
0000
0000
0100
0000
0000
0000
0010
0000
0000
0010
0000
0000
0010
0000
,
0001
0101
0001
0101
0001
0101
0100
0010
,
1000
0000
0100
0000
,
0010
0000
0001
0010
,
0001
0000
0010
0000
,
0200
0000
0300
0000
,
0001
0010
0100
0000
0010
1000
0100
0000
,
0010
0001
0100
0000
0010
0000
0101
0000
,
0001
0100
0010
0000
0100
1000
0010
0000
,
0100
0001
0010
0000
1100
0000
0011
0000
,
1000
1100
0001
0101
,
0010
0000
1010
0000
0100
0001
0100
0000
,
0020
1030
0200
0301
,
0020
0130
1010
0101
,
1000
1010
0001
0011
,
0100
0000
1100
0000
0010
0001
0010
0000
,
0200
1300
0020
0031
,
0200
0310
1000
0011
,
1100
0000
0000
0000
;
