#TITLE:Obsession;
#ARTIST:Brooklyn Fire;
#BANNER:Obsession.png;
#BACKGROUND:Obsession-bg.png;
#CDTITLE:./CDTITLES/DanceDanceRevolution HOTTEST PARTY 2.png;
#MUSIC:Obsession.ogg;
#SAMPLESTART:41.668;
#SAMPLELENGTH:15;
#BPMS:0=118;

//---------------dance-single - ----------------
#NOTES:
     dance-single:
     :
     Beginner:
     1:
     :
0000
0000
0000
0000
,
0000
0000
0000
0000
,
0000
0000
0000
0000
,
0000
0001
0000
0000
,
0000
1000
0000
0000
,
0000
0001
0000
0000
,
0000
0001
0000
0000
,
0000
1000
0000
0000
,
0000
1000
0000
0000
,
0000
0001
0000
0000
,
0000
0001
0000
0000
,
0000
0100
0000
0000
,
0000
0000
1001
0000
,
0000
0000
1000
0000
,
1000
0000
0001
0000
,
0001
0000
0000
0000
,
0110
0000
0000
0000
,
0000
0000
0001
0000
,
0001
0000
1000
0000
,
1000
0000
0000
0000
,
0110
0000
0000
0000
,
1001
0000
0000
0000
,
1001
0000
0000
0000
,
1000
0000
0000
0000
,
0001
0000
0000
0000
,
0000
1000
0000
0000
,
0000
0001
0000
0000
,
0000
1000
0000
0000
,
0000
0001
0000
0000
,
0000
1000
0000
0000
,
0000
1000
0000
0000
,
0000
0001
0000
0000
,
0000
0001
0000
0000
,
0000
0100
0000
0000
,
0000
0000
1001
0000
,
0000
0000
0010
0000
,
0000
0000
0100
0000
,
1001
0000
0000
0000
,
0100
0000
0000
0000
,
1000
0000
0000
0000
,
0100
0000
0000
0000
,
1001
0000
0000
0000
,
0010
0000
0000
0000
,
0001
0000
0000
0000
,
0010
0000
0000
0000
,
1001
0000
0000
0000
;

//---------------dance-single - ----------------
#NOTES:
     dance-single:
     :
     Easy:
     3:
     :
0000
0000
0000
0000
,
0000
0000
0000
0000
,
0000
0000
0000
0000
,
0000
1000
1001
0000
,
0000
0001
1001
0000
,
0000
1000
0000
0000
,
0000
1000
0000
0100
,
0000
0001
0000
0000
,
0000
0001
0000
0100
,
0000
1000
0000
0000
,
0000
1000
0000
0010
,
0000
0001
0000
1000
,
0000
0100
0000
0000
,
1000
0100
0001
0000
,
1000
0100
0010
0000
,
0010
0100
0001
0000
,
2000
0000
3000
0000
,
0001
0010
1000
0000
,
0001
0010
0100
0000
,
0100
0010
1000
0000
,
0002
0000
0003
0000
,
1001
0000
0100
0000
,
1001
0000
0010
0000
,
1001
0000
0001
0000
,
1001
0000
1000
0000
,
0000
0001
0001
0000
,
0000
1000
1000
0000
,
0000
0001
1001
0000
,
0000
1000
1001
0000
,
0000
0001
0000
0000
,
0000
0001
0000
0010
,
0000
1000
0000
0000
,
0000
1000
0000
0010
,
0000
0010
0000
0100
,
1000
0001
1001
0000
,
0010
0000
0100
0000
,
0100
0010
0110
0000
,
1001
0000
0100
0000
,
1001
0000
0100
0000
,
1001
0000
0001
0000
,
1001
0000
1000
0000
,
0110
0000
0001
0000
,
0110
0000
1000
0000
,
0110
0000
1000
0000
,
0110
0000
0001
0000
,
1001
0000
0000
0000
;

//---------------dance-single - ----------------
#NOTES:
     dance-single:
     :
     Medium:
     5:
     :
0000
0000
0000
0000
,
0000
0000
0000
0000
,
0000
0000
0000
0000
,
0000
0000
0010
0000
0000
1000
0001
0000
,
0000
0000
0100
0000
0000
0001
1000
0000
,
0001
0000
0010
0000
,
0001
0000
0001
0000
0100
1000
0001
0000
,
1000
0000
0100
0000
,
1000
0000
1000
0000
0010
0001
1000
0000
,
0001
1000
0010
0100
,
0001
0000
0001
0000
0100
1000
0001
0000
,
1000
0001
0010
0100
,
1000
0000
0010
0100
0010
0000
0001
0000
,
0010
0100
0010
0000
1000
0000
1100
0000
,
0001
0100
0001
0000
0100
0000
0110
0000
,
0010
0100
0010
0000
1000
0000
1010
0000
,
0100
0001
0010
1000
,
0010
0100
0010
0000
1000
0000
1100
0000
,
0001
0100
0001
0000
0100
0000
0110
0000
,
0010
0100
0010
0000
1000
0000
1010
0000
,
0100
0001
0010
1000
,
1001
0000
0000
0100
0100
0000
0000
0000
,
1001
0000
0000
0010
0010
0000
0000
0000
,
1100
0000
1000
0100
0100
0000
1001
0000
,
0011
0000
0001
0010
0010
0000
1001
0000
,
0200
0000
0000
0010
0310
0000
1000
0000
,
0200
0000
0000
0010
0310
0000
0001
0000
,
1020
0000
1000
0001
0031
0000
0100
0000
,
0021
0000
0001
1000
1030
0000
0100
0000
,
1000
0001
0110
0000
,
1000
0000
1000
0000
0010
0001
1000
0000
,
0001
1000
0110
0000
,
0001
0000
0001
0000
0100
1000
0001
0000
,
1000
0010
0100
0001
,
1000
0000
0001
0100
0010
0000
0000
0000
,
0100
0010
1000
0001
,
0100
1000
0010
0100
0000
0000
0100
0000
,
0101
0000
0000
0010
0010
0000
0000
0000
,
1100
0000
0000
0010
0010
0000
0000
0000
,
1010
0000
1000
0100
0100
0000
0000
0000
,
0011
0000
0001
0100
0100
0000
0000
0000
,
0200
0000
0000
0010
0310
0000
1000
0000
,
0200
0000
0000
0010
0310
0000
0001
0000
,
1020
0000
1000
0001
0031
0000
0100
0000
,
0021
0000
0001
1000
1030
0000
0100
0000
,
1001
0000
0000
0000
;

//---------------dance-single - ----------------
#NOTES:
     dance-single:
     :
     Hard:
     7:
     :
0000
0000
0000
0000
,
0000
0000
0000
0000
,
0000
0000
0000
0000
,
1000
0000
0000
0001
0000
0001
0000
0000
0001
0000
0000
0000
1000
0000
0000
0000
,
0001
0000
0000
1000
0000
1000
0000
0000
1000
0000
0000
0000
0001
0000
0000
0000
,
0010
0000
0100
0000
0001
0010
0001
0000
,
0100
0000
0010
0000
1000
0100
1000
0000
,
0010
0000
0100
0000
1000
0010
1000
0000
,
0100
0000
0010
0000
0001
0100
0001
0000
,
0100
0000
1010
0000
0001
0100
0001
0000
,
0010
0000
0100
0000
1000
0010
1000
0000
,
0010
0000
0101
0000
1000
0010
1000
0010
,
0001
1000
0100
0010
0001
0000
1000
0000
,
0001
0000
0110
0000
0001
0100
1000
0000
,
0001
0000
0110
0000
1000
0100
0001
0000
,
1000
0000
0110
0000
1000
0100
0001
0000
,
1000
0000
0110
0000
0001
0100
1000
0000
,
0100
0000
1010
0000
0001
0010
1000
0010
,
0100
0000
0011
0000
1000
0010
0001
0010
,
0010
0000
0101
0000
1000
0100
0001
0100
,
0010
0000
1100
0000
0001
0100
1000
0000
,
1002
0000
0003
0001
0020
0000
0130
0000
,
2001
0000
3000
1000
0200
0000
0310
0000
,
1002
0000
0103
0001
0200
0000
0310
0000
,
2001
0000
3010
1000
0020
0000
0130
0000
,
2200
0000
0000
3000
1300
0100
0010
0001
,
0022
0000
0000
0003
0031
0010
0100
1000
,
2100
0000
0010
0000
3100
0001
1000
0010
,
0012
0000
0100
0000
0013
1000
0001
0000
,
1000
0000
0010
0000
0100
1000
0100
0010
,
0001
0000
1000
0000
0010
0001
0010
0100
,
0001
0000
0100
0000
0010
0001
0010
0100
,
1000
0000
0001
0000
0100
1000
0100
0010
,
1000
0000
1100
0000
0010
1000
0001
0100
,
0001
0010
0101
0000
0001
0100
1010
0000
,
0001
0000
0101
0000
0010
0001
1000
0100
,
1000
0010
1100
0000
1000
0100
0011
0000
,
1002
0000
0003
0001
0020
0000
0130
0000
,
2001
0000
3000
1000
0200
0000
0310
0000
,
2001
0000
3100
1000
0200
0000
0310
0000
,
1002
0000
0013
0001
0020
0000
0130
0000
,
2020
0000
0000
3000
1030
0010
0100
0001
,
0202
0000
0000
0003
0301
0100
0010
1000
,
2010
0000
0100
0000
3010
0001
1000
0100
,
0102
0000
0010
0000
0103
1000
0001
0000
,
1001
0000
0000
0000
;
