#TITLE:No Matter What;
#ARTIST:jun feat.Rita Boudreau;
#BANNER:No Matter What.png;
#BACKGROUND:No Matter What-bg.png;
#CDTITLE:./CDTITLES/DanceDanceRevolution HOTTEST PARTY 2.png;
#MUSIC:No Matter What.ogg;
#SAMPLESTART:62.358;
#SAMPLELENGTH:15;
#BPMS:0=100;

//---------------dance-single - ----------------
#NOTES:
     dance-single:
     :
     Beginner:
     1:
     :
0000
0000
0000
0000
,
0000
0000
0000
0000
,
0000
0000
0000
0000
,
0000
0000
0000
0000
,
0000
0000
0000
0000
,
0000
0010
0000
0100
,
0000
0100
0000
0100
,
0000
0010
0000
0100
,
0000
0100
0000
1001
,
0000
0000
0000
0001
,
0000
0010
0000
1000
,
0000
0010
0000
0010
,
0000
1000
0000
0010
,
0000
0000
0000
0010
,
0000
0000
0100
0100
,
0000
0100
0000
0100
,
0000
0000
0000
0000
,
1001
0000
0000
0001
,
0000
0010
0000
1000
,
0000
0010
0000
0010
,
0000
1000
0000
0010
,
0000
0000
0000
0010
,
0000
0000
0100
0100
,
0000
0100
0000
0100
,
0000
0000
0000
0000
,
1001
0000
1001
0000
,
0000
0001
0001
0000
,
0200
0000
0300
0000
,
0000
1000
1000
0000
,
0020
0000
0030
0000
,
0100
0000
0000
0000
,
0010
0000
0000
0000
,
0001
0001
1000
1000
,
0000
0000
0000
0000
,
2000
0000
0000
0000
,
0000
0000
3000
0000
,
0002
0000
0000
0000
,
0000
0000
0003
0000
,
0100
0000
0001
0000
,
0100
0000
1000
0000
,
0100
0000
0010
0010
,
0010
0000
0100
0100
,
0100
0000
0000
0000
;

//---------------dance-single - ----------------
#NOTES:
     dance-single:
     :
     Easy:
     3:
     :
0000
0000
0000
0000
,
0000
0000
0000
0000
,
0000
0000
0000
0000
,
0000
0000
0000
0000
,
0000
0000
0000
0000
,
0000
0010
0000
0110
,
0000
0100
0000
1100
,
0000
0010
0000
0110
,
0000
0100
0000
1001
,
0000
0000
1000
0001
,
0000
0010
0010
1000
,
0000
0010
0001
0010
,
0000
1000
0000
0110
,
0000
0000
1000
0010
,
0000
0000
0100
1000
,
0000
0100
0010
0100
,
0000
0001
0001
1000
,
1001
0000
0001
1000
,
0000
0100
0100
0001
,
0000
0100
1000
0100
,
0000
0001
0000
0110
,
0000
0000
0001
0100
,
0000
0000
0010
0001
,
0000
0001
0001
1000
,
1001
0000
0110
0000
,
0110
0000
1001
0000
,
0000
0100
0000
0010
,
2000
0000
3000
0000
,
0000
0010
0000
0001
,
0020
0000
0030
0000
,
0200
0000
0300
0000
,
0020
0000
0030
0000
,
0010
0100
0001
1000
,
0002
0000
0000
0003
,
2000
0000
0000
0000
,
0000
0000
3000
0000
,
0020
0000
0000
0000
,
0000
0000
0030
0000
,
1000
0000
0100
1001
,
0001
0000
0010
1001
,
1000
1000
0001
0010
,
1000
1000
0001
0100
,
0010
0000
0000
0000
;

//---------------dance-single - ----------------
#NOTES:
     dance-single:
     :
     Medium:
     7:
     :
0000
0000
0000
0000
,
0000
0000
0000
0000
,
0000
0000
0000
0000
,
0000
0000
0000
0000
,
0000
0000
0000
0000
,
1000
0100
0010
0001
0000
1000
0010
0000
,
1000
0010
0100
0001
0000
0100
1000
0000
,
0001
0100
0010
1000
0000
0001
0010
0000
,
1000
0010
0100
0010
0001
0000
0110
0000
,
1001
0000
1000
0000
1000
0001
0100
0000
,
1000
0010
0100
0000
0010
0100
0001
0000
,
1000
0100
0010
0000
1000
0000
0110
0000
,
1000
0001
0100
0100
0010
0010
1000
0000
,
1001
0000
0001
0010
0001
1000
0010
0000
,
0001
0010
1000
0000
0000
0010
0100
0000
,
0001
0010
0100
0000
0010
0001
0100
0000
,
0010
0100
1000
0000
1000
0010
0001
0000
,
1001
0000
0001
0000
0001
1000
0010
0000
,
0001
0100
0010
0000
0100
0010
1000
0000
,
0001
0010
0100
0000
0001
0000
0110
0000
,
0001
1000
0010
0010
0100
0100
0001
0000
,
1001
0000
1000
0100
1000
0001
0100
0000
,
1000
0100
0001
0000
0000
0100
0010
0000
,
1000
0100
0010
0000
0100
1000
0010
0000
,
1000
0010
0110
0000
0100
1000
1010
0000
,
1000
0010
0110
0000
0100
0001
0011
0000
,
1000
0000
0100
0000
0010
0000
0010
0100
,
2000
0010
3010
0000
,
1000
0010
0100
0001
,
0020
0200
0000
0330
,
0002
0000
1003
1000
,
0020
1000
0030
0100
,
0010
0100
1000
0000
0100
0000
1010
0000
,
0200
0000
0010
0310
,
2000
0000
3020
0000
,
2030
0000
3002
0000
,
2003
0000
3020
0000
,
2030
0000
3002
0000
,
1003
0000
1100
0000
0100
0010
1000
0001
,
0010
0000
0101
0000
0100
0010
0001
1000
,
0010
0000
0100
0000
0001
0010
0001
0000
0001
0010
0001
0000
0100
0000
0001
0000
,
0010
0000
0100
0000
1000
0010
1000
0000
1000
0010
1000
0000
0100
0000
0010
0000
,
1000
0000
0000
0000
;

//---------------dance-single - ----------------
#NOTES:
     dance-single:
     :
     Hard:
     11:
     :
0000
0000
0000
0000
,
0000
0000
0000
0000
,
0000
0000
0000
0000
,
0000
0000
0000
0000
,
0000
0000
0000
0000
,
1000
0001
0100
0010
0000
1000
0010
0000
,
1000
0010
0100
0001
0000
0100
1100
0000
,
0001
0100
0010
1000
0000
0001
0100
0000
,
1000
0010
0100
0010
0011
1000
0010
0001
,
1001
0000
0000
0000
1000
0010
0100
0000
1000
0000
0001
0000
0100
0000
0010
0000
,
1000
0000
0010
0000
0100
1000
0100
0000
0010
0000
0100
0000
1100
0000
0000
0000
,
1000
0000
0100
0000
0010
0001
0010
0100
1000
0000
0001
0000
0010
0000
0100
0000
,
1000
0000
0001
0000
1000
0010
1000
0000
0001
0100
0001
0000
1000
0000
0000
0000
,
1001
0000
0000
0000
0001
0100
0010
0000
0001
0000
1000
0000
0010
0000
0100
0000
,
0001
0000
0100
0000
0010
0001
0010
0000
0100
0000
0010
0000
0011
0000
0000
0000
,
0001
0000
0010
0000
0100
1000
0100
0010
0001
0000
1000
0000
0100
0000
0010
0000
,
0001
0000
1000
0000
0001
0100
0001
0000
1000
0010
1000
0000
0101
0000
0000
0000
,
1001
0000
0000
0000
1000
0100
0010
0000
1000
0000
0001
0000
0010
0000
0001
0000
,
1000
0000
0100
0000
0010
1000
0010
0000
0100
0000
0010
0000
1010
0000
0100
0000
,
1000
0000
0010
0000
0100
0001
0100
0010
1000
0000
0001
0000
0100
0000
0010
0000
,
1000
0000
0001
0000
1000
0100
1000
0000
0001
0010
0001
0000
1000
0000
0000
0000
,
1001
0000
0000
0000
1000
0100
0010
0000
1000
0000
0001
0000
0010
0000
0100
0000
,
1000
0000
0100
0000
0010
1000
0010
0000
0100
0000
0010
0000
1010
0000
0100
0000
,
1000
0000
0010
0000
0100
0001
0100
0010
1000
0000
0001
0000
0100
0000
0010
0000
,
0001
0000
0010
0000
0100
0010
0001
0000
0010
0100
1000
0000
1100
0000
0000
0000
,
1000
0000
0010
0000
0100
0010
1000
0000
0010
0100
0001
0000
0011
0000
0000
0000
,
1000
1200
0000
0310
0002
0000
0013
0100
,
1000
0000
0100
0010
0001
0000
0010
0000
1000
0100
1000
0000
1100
0000
0000
0000
,
1000
1020
0000
0130
0002
0000
0103
1000
,
0010
0000
0100
1000
0010
0000
0100
0000
0010
0001
0100
0000
0110
0000
0000
0000
,
0001
1100
0000
0001
1000
0000
1000
0001
,
0010
0100
0000
0100
0010
0000
0100
1000
,
0010
0000
0100
0001
1000
0000
0010
0000
0100
0000
1000
0000
1010
0000
0000
0000
,
0100
0000
0010
0001
0010
0100
0010
1000
0010
0000
0000
0000
0101
0000
0000
0000
,
0012
0000
0010
0000
1003
0000
0100
0000
0010
0001
0010
0000
1000
0000
0010
0000
,
0102
0000
0100
0000
1003
0000
0010
0000
0100
0001
0100
0000
1000
0000
0100
0000
,
2010
0000
0010
0000
3001
0000
0100
0000
0010
1000
0010
0000
0001
0000
0010
0000
,
2100
0000
0100
0000
3001
0000
0010
0000
0100
1000
0100
0000
0001
0000
0100
0000
,
0010
1000
0010
0000
0100
0000
0001
0000
0010
0100
0010
0000
0001
0000
1000
0000
,
0010
0001
0010
0000
0100
0000
1000
0000
0010
0100
0010
0000
1000
0000
0001
0000
,
1000
0100
1000
0000
0100
0010
0100
0000
0010
0001
0010
0000
1000
0000
0100
0000
,
0001
0100
0001
0000
0100
0010
0100
0000
0010
1000
0010
0000
0001
0000
0100
0000
,
0010
0000
0000
0000
;
