#TITLE:Nite-Runner;
#ARTIST:FRAZ;
#BANNER:Nite-Runner.png;
#BACKGROUND:Nite-Runner-bg.png;
#CDTITLE:./CDTITLES/DanceDanceRevolution HOTTEST PARTY 2.png;
#MUSIC:Nite-Runner.ogg;
#SAMPLESTART:46.108;
#SAMPLELENGTH:15;
#BPMS:0=130;

//---------------dance-single - ----------------
#NOTES:
     dance-single:
     :
     Beginner:
     1:
     :
0000
0000
0000
0000
,
0000
0000
0000
0000
,
0000
0000
0000
0000
,
0000
0000
0000
0000
,
0000
0000
0000
0000
,
0001
0000
0000
0000
,
0010
0000
0000
0000
,
0001
0000
0000
0000
,
1000
0000
0000
0000
,
0010
0000
0000
0000
,
0010
0000
0010
0000
,
0100
0000
0000
0000
,
0100
0000
0100
0000
,
0001
0000
0000
0000
,
1000
0000
0000
0000
,
0001
0000
0001
0000
,
0100
0000
0000
0000
,
0001
0001
0000
0000
,
0001
0001
0000
0000
,
0001
0001
0000
0000
,
0001
0001
0000
0000
,
1000
0000
0000
0000
,
0010
0000
0000
0000
,
0100
0000
0000
0000
,
0001
0000
0000
0000
,
1000
0000
0000
0000
,
0010
0000
0001
0000
,
1000
0000
0000
0000
,
0010
0000
0001
0000
,
1000
0000
0000
0000
,
0100
0000
1000
0000
,
1000
0000
0000
0000
,
1000
0000
0000
0000
,
0001
0000
0000
0000
,
0001
0000
0001
0000
,
1000
0000
0000
0000
,
1000
0000
1000
0000
,
0010
0000
0000
0000
,
0100
0000
0000
0000
,
0010
0000
0010
0000
,
0001
0000
0000
0000
,
1000
1000
0000
0000
,
1000
1000
0000
0000
,
1000
1000
0000
0000
,
1000
1000
0000
0000
,
0001
0000
0000
0000
,
0100
0000
0000
0000
,
0010
0000
0000
0000
,
1000
0000
0000
0000
,
0001
0000
0000
0000
,
0100
0000
1000
0000
,
0001
0000
0000
0000
,
0100
0000
1000
0000
,
0001
0000
0000
0000
,
0010
0000
0001
0000
,
0001
0000
0000
0000
,
0001
0000
0000
0010
;

//---------------dance-single - ----------------
#NOTES:
     dance-single:
     :
     Easy:
     3:
     :
0000
0000
0000
0000
,
0000
0000
0000
0000
,
0000
0000
0000
0000
,
0000
0000
0000
0000
,
0000
0000
0000
0000
,
0001
0000
0001
0000
,
0010
0000
0010
0000
,
0001
0000
0001
0000
,
1000
0000
1000
0000
,
0010
0000
1000
0000
,
0010
0000
0001
0000
,
0100
0000
1000
0000
,
0100
0000
0001
0000
,
0001
0000
0001
0000
,
1000
0000
1000
0000
,
0001
0000
1000
0000
,
0100
0000
0000
0000
,
2001
0000
0100
0000
,
0001
0000
0010
0000
,
0001
0000
0100
0000
,
0001
0000
3001
0000
,
1000
0000
1000
0000
,
0010
0000
0010
0000
,
0100
0000
0100
0000
,
0001
0000
0000
0000
,
0000
1000
1000
0000
,
0010
0000
1001
0000
,
0000
1000
1000
0000
,
0010
0000
1001
0000
,
0000
1000
1000
0000
,
0100
0000
1001
0000
,
0000
1000
1000
0000
,
0000
1000
1000
0000
,
0100
0000
0001
0000
,
0100
0000
1000
0000
,
0010
0000
0001
0000
,
0010
0000
1000
0000
,
1000
0000
1000
0000
,
0001
0000
0001
0000
,
1000
0000
0001
0000
,
0010
0000
0000
0000
,
1002
0000
0100
0000
,
1000
0000
0010
0000
,
1000
0000
0100
0000
,
1000
0000
1003
0000
,
0001
0000
0001
0000
,
0100
0000
0100
0000
,
0010
0000
0010
0000
,
1000
0000
0000
0000
,
0000
0001
0001
0000
,
0100
0000
1001
0000
,
0000
0001
0001
0000
,
0100
0000
1001
0000
,
0000
0001
0001
0000
,
0010
0000
1001
0000
,
0000
0001
0001
0000
,
0000
0001
0001
0100
;

//---------------dance-single - ----------------
#NOTES:
     dance-single:
     :
     Medium:
     5:
     :
0000
0000
0000
0000
,
0000
0000
0000
0000
,
0000
0000
0000
0000
,
0000
0000
0000
0000
,
0000
0000
0000
0000
,
0010
0000
1000
0000
0100
1000
0000
0000
,
0010
1000
0001
1100
,
0010
0000
1000
0000
0100
1000
0000
0100
,
0000
0000
1000
0000
0100
1000
0000
0000
,
0001
0000
1000
0010
0100
0000
0001
0000
,
1000
0010
0100
0001
,
1000
0000
0001
0100
0010
0000
1000
0000
,
0001
0100
0010
1000
,
0010
0100
0001
0000
1000
0000
0010
0000
,
0100
0001
1000
0010
,
0100
0010
1000
0000
0001
0000
0100
0000
,
0010
0011
0000
0000
,
2001
0010
0010
0001
,
0001
0100
0100
0001
,
0001
0010
0010
0001
,
0000
0100
3001
0000
,
0010
0000
0010
0000
1000
0100
1000
0000
,
0001
0001
0100
0010
,
1000
0001
0100
0000
0010
0000
0100
0000
,
0001
0100
0010
0000
0000
0000
0000
0000
,
0000
0000
0001
0100
0001
0100
0000
0000
,
0000
0010
1000
0010
0100
0001
1000
0010
,
0000
0000
0001
0100
0001
0100
0000
0000
,
0000
0010
1000
0010
0100
0001
1000
0010
,
0000
0000
0001
0100
0001
0100
0000
0000
,
0000
0010
0100
0001
1000
0010
0100
0001
,
0000
0000
0001
0100
0001
0100
0000
0010
,
0000
0000
0001
0000
0100
0001
0000
0000
,
1000
0000
0001
0100
0010
0000
1000
0000
,
0001
0100
0010
1000
,
0001
0000
1000
0010
0100
0000
0001
0000
,
1000
0010
0100
0001
,
0100
0010
1000
0000
0001
0000
0100
0000
,
0010
1000
0001
0100
,
0010
0100
0001
0000
1000
0000
0010
0000
,
0100
1100
0000
0000
,
1002
0100
0100
1000
,
1000
0010
0010
1000
,
1000
0100
0100
1000
,
1000
0010
1003
0000
,
0100
0000
0100
0000
0001
0010
0001
0000
,
1000
1000
0010
0100
,
0001
1000
0010
0000
0100
0000
0010
0000
,
1000
0010
0100
0000
0000
0000
0000
0000
,
0000
0000
1000
0010
1000
0010
0000
0000
,
0000
0100
0001
0100
0010
1000
0001
0100
,
0000
0000
1000
0010
1000
0010
0000
0000
,
0000
0100
0001
0100
0010
1000
0001
0100
,
0000
0000
1000
0010
1000
0010
0000
0000
,
0000
0100
0010
1000
0001
0100
0010
1000
,
0000
0000
1000
0010
1000
0010
0000
0100
,
0000
0000
1000
0000
0010
1000
0100
0000
;

//---------------dance-single - ----------------
#NOTES:
     dance-single:
     :
     Hard:
     7:
     :
0000
0000
0000
0000
,
0000
0000
0000
0000
,
0000
0000
0000
0000
,
0000
0000
0000
0000
,
0000
0000
0000
0000
,
0010
0000
1000
0000
0100
1100
0000
1000
,
0000
0001
0010
0100
1000
0001
1000
0010
,
0000
0000
1000
0000
0100
1100
0000
0100
,
0000
0000
1000
0000
0100
1100
0000
0000
,
0101
0000
1100
0000
1000
0010
0100
0000
,
0011
0000
1100
0000
1000
0100
1000
0000
,
1010
0000
0101
0000
1000
0001
0100
0000
,
0001
0100
0110
1100
,
1100
0000
0101
0000
0001
0010
0100
0000
,
1010
0000
0101
0000
0001
0100
0001
0000
,
1000
0000
0010
0000
0001
0100
0010
0000
,
1000
0000
1100
0000
0010
1000
0100
2001
,
0000
0000
0010
0000
0001
0001
0010
0000
,
0010
0000
0001
0000
0100
0100
3001
0002
,
1000
0000
0100
0000
1000
1000
1000
0000
,
0100
0010
0013
0000
,
0110
0000
0101
0000
1000
0100
1000
0000
,
0110
0000
1100
0000
0001
0010
0001
1100
,
0000
0110
0000
0011
0000
0000
0000
1000
,
0001
0000
0000
0000
,
0000
0000
0000
0000
1000
0000
0000
0000
0100
1000
0100
0000
0000
0000
0000
0000
,
0000
0010
1000
0010
0100
0001
1000
0010
,
0000
0000
0000
0000
1000
0000
0000
0000
0100
1000
0100
0000
0000
0000
0000
0000
,
0000
0000
0010
0000
1000
0000
0010
0000
0100
0001
0100
0000
0001
0000
1000
0000
,
0000
0000
0000
0000
1000
0000
0000
0000
0100
1000
0100
0000
0000
0000
1000
0000
,
0000
0010
0100
0001
1000
0010
0100
0001
,
0000
0000
0000
0000
1000
0000
0000
0000
0100
1000
0100
0000
0000
0000
0010
0000
,
0000
0000
0000
0000
1000
0000
0000
0000
0100
1000
0100
0000
0000
0000
0000
0000
,
1010
0100
0011
0000
0001
0100
0010
0000
,
1100
0010
0011
0000
0001
0010
0001
0000
,
0101
0010
1010
0000
0001
1000
0010
0000
,
1000
0010
0110
0011
,
0011
0100
1010
0000
1000
0100
0010
0000
,
0101
0010
1010
0000
1000
0010
1000
0000
,
0001
0000
0100
0000
1000
0010
0100
0000
,
0001
0000
0011
0000
0100
0001
0010
1002
,
0000
0000
0100
0000
1000
1000
0100
0000
,
0100
0000
1000
0000
0010
0010
1003
2000
,
0001
0000
0010
0000
0001
0001
0001
0000
,
0010
0000
0100
0000
3100
0010
0001
0000
,
0110
0000
1010
0000
0001
0010
0001
0000
,
0110
0000
0011
0000
1000
0100
1000
0011
,
0000
0110
0000
1100
0000
0000
0000
0001
,
1000
0000
0000
0000
,
0000
0000
0000
0000
0001
0000
0000
0000
0100
0001
0100
0000
0010
0000
0100
0000
,
0001
0010
0001
0010
0100
1000
0001
0010
,
0000
0000
0000
0000
0001
0000
0000
0000
0100
0001
0100
0000
0010
0000
0100
0000
,
0001
0000
0010
0000
0001
0000
0010
0000
0100
1000
0100
0000
1000
0000
0001
0000
,
0000
0000
0000
0000
0001
0000
0000
0000
0100
0001
0100
0000
0000
0000
0001
0000
,
0000
0010
0100
1000
0001
0010
0100
1000
,
0000
0000
0000
0000
0001
0000
0000
0000
0100
0001
0100
0000
0000
0000
0010
0000
,
0000
0000
0000
0000
0001
0000
0000
0000
0100
0001
0100
0000
0000
0000
0000
0000
;
