#TITLE:My Destiny;
#ARTIST:ASHER;
#BANNER:My Destiny.png;
#BACKGROUND:My Destiny-bg.png;
#CDTITLE:./CDTITLES/DanceDanceRevolution HOTTEST PARTY 2.png;
#MUSIC:My Destiny.ogg;
#SAMPLESTART:52.705;
#SAMPLELENGTH:15;
#BPMS:0=132;

//---------------dance-single - ----------------
#NOTES:
     dance-single:
     :
     Beginner:
     1:
     :
0000
0000
0000
0000
,
0000
0000
0000
0000
,
0000
0000
0000
0000
,
0000
0000
0000
0000
,
0000
0000
0000
0000
,
0100
0000
0000
0000
,
0000
0000
0000
0000
,
0100
0000
0000
0000
,
0000
0000
0000
0000
,
0010
0000
0000
0000
,
0000
0000
0000
0000
,
0010
0000
0000
0000
,
0000
0000
0000
0000
,
0000
1000
0000
0000
,
0000
0000
0000
0100
,
0000
0100
0000
0000
,
0000
0100
0000
0000
,
0000
0000
0000
1000
,
0000
0000
0000
1000
,
0000
0000
0000
0000
,
0100
0000
0000
0000
,
0000
0001
0000
0000
,
0000
0000
0000
0010
,
0000
0010
0000
0000
,
0000
0010
0000
0000
,
0000
0000
0000
0001
,
0000
0000
0000
0001
,
0000
0000
0000
0000
,
0010
0000
0000
0000
,
0000
0001
0000
0001
,
0000
0000
0000
0100
,
0000
1000
0000
1000
,
0000
0000
0000
0010
,
0000
0001
0000
0001
,
0000
0000
0000
0100
,
0000
0000
0000
0001
,
0000
0000
0000
1000
,
0000
1000
0000
1000
,
0000
0000
0000
0010
,
0000
0001
0000
0001
,
0000
0000
0000
0100
,
0000
1000
0000
1000
,
0000
0000
0000
0010
,
0000
0000
0000
1000
,
0000
0000
0000
0001
,
0000
0000
0000
0010
,
0000
0000
0000
0010
,
0000
0000
0000
1000
,
0000
0000
0000
1000
,
0000
0000
0000
0100
,
0000
0000
0000
0100
,
0000
0000
0000
0001
,
0000
0000
0000
0001
;

//---------------dance-single - ----------------
#NOTES:
     dance-single:
     :
     Easy:
     3:
     :
0000
0000
0000
0000
,
0000
0000
0000
0000
,
0000
0000
0000
0000
,
0000
0000
0000
0000
,
0000
0000
0000
0000
,
0000
0100
0000
0001
,
0001
0000
0001
0001
,
0000
0001
0000
0100
,
0100
0000
0000
0000
,
0000
0010
0000
1000
,
1000
0000
1000
1000
,
0000
0000
0000
0010
,
0000
0000
0001
0001
,
0000
1000
0000
1000
,
0000
0001
0000
0001
,
0000
0100
0000
0100
,
0000
0010
0000
0010
,
0000
1000
1000
1000
,
0000
0010
0010
0010
,
0000
0100
0000
0000
,
0000
0110
0000
0000
,
0000
0001
0000
0001
,
0000
1000
0000
1000
,
0000
0010
0000
0010
,
0000
0100
0000
0100
,
0000
0001
0001
0001
,
0000
0100
0100
0100
,
0000
0010
0000
0000
,
0010
0000
1001
0000
,
0000
0001
0000
0100
,
0200
0000
0000
0300
,
0000
1000
0000
0010
,
0020
0000
0000
0030
,
0000
0001
0000
0100
,
0200
0000
0000
0300
,
0000
0000
0000
0001
,
0000
0010
0000
0110
,
0000
1000
0000
0010
,
0020
0000
0000
0030
,
0000
0001
0000
0100
,
0200
0000
0000
0300
,
0000
1000
0000
0010
,
0020
0000
0000
0030
,
0000
0000
0000
1000
,
0000
0100
0000
1001
,
0000
0001
0000
1000
,
0000
0010
0000
0100
,
0000
1000
0000
0001
,
0000
0001
0000
0001
,
0000
1000
0000
0001
,
0000
0100
0000
0010
,
0000
0001
0000
1000
,
0000
1000
0000
1000
,
0002
0000
0000
0000
,
0000
0003
0000
0000
;

//---------------dance-single - ----------------
#NOTES:
     dance-single:
     :
     Medium:
     5:
     :
0000
0000
0000
0000
,
0000
0000
0000
0000
,
0000
0000
0000
0000
,
0000
0000
0000
0000
,
0000
0000
0000
0000
,
0000
0000
1000
0000
0010
0000
1000
0010
,
2000
0002
0000
0000
0003
0000
3010
1000
,
0010
0000
0100
0000
0001
0000
0100
0001
,
0200
0010
0001
0301
,
0000
0000
0001
0000
0100
0000
0001
0100
,
0002
2000
0000
0000
3000
0000
0103
0001
,
0100
0000
0010
0011
,
1100
0000
0010
0110
,
0000
1000
0100
1000
,
0001
0000
0100
0000
1000
0010
1000
0001
,
0100
0001
0010
0001
,
0100
0000
0001
0000
0010
1000
0001
0100
,
0010
0100
0000
0100
,
0010
1000
0001
0001
,
0000
0010
1000
0010
,
0100
0001
1000
0000
,
0000
0001
0100
0001
,
1000
0000
0100
0000
0001
0010
0001
1000
,
0100
1000
0010
1000
,
0100
0000
1000
0000
0010
0001
1000
0100
,
0010
0100
0000
0100
,
0010
0001
1000
1000
,
0000
0010
0001
0010
,
0100
0000
0000
0000
1000
0100
0010
0001
,
0010
0000
0010
0100
0001
0000
0001
0010
,
0000
0010
0001
0100
0001
0000
0100
0000
,
0100
0000
0100
0010
1000
0000
1000
0100
,
0000
0000
0100
0000
1000
0000
0000
0000
0010
0000
0000
0010
0000
0000
0010
0000
,
0000
0000
1000
0100
1000
0000
0100
0010
,
0000
0001
1000
0001
0100
0000
0010
0000
,
1000
0001
0100
1100
,
0200
0000
0000
0300
,
0010
0000
0010
0100
1000
0000
1000
0010
,
0000
0010
1000
0100
1000
0000
0100
0000
,
0100
0000
0100
0010
0001
0000
0001
0100
,
0000
0100
0001
1000
0010
0100
0001
1000
,
0100
0000
0001
0100
0001
0000
0100
0010
,
0000
1000
0001
1000
0100
0000
0010
0000
,
0001
1000
0100
0101
,
0200
0000
0000
0300
,
0010
0000
1001
0000
0010
0100
0001
0000
,
0100
0010
1000
0000
0100
0000
0010
0100
,
0010
0000
1001
0000
0100
0010
1000
0000
,
0001
1100
0010
1100
,
0100
0000
1001
0000
0100
0010
1000
0000
,
0010
0100
0001
0000
0010
0000
0100
0010
,
0100
0000
1001
0000
0010
0100
0001
0000
,
1000
0011
0100
0011
,
2000
0000
0000
0000
,
0000
3000
0000
0000
;

//---------------dance-single - ----------------
#NOTES:
     dance-single:
     :
     Hard:
     7:
     :
0000
0000
0000
0000
,
0000
0000
0000
0000
,
0000
0000
0000
0000
,
0000
0000
0000
0000
,
0000
0000
0000
0000
,
0000
0000
1000
0010
0001
0000
0001
1000
,
0100
2000
0000
0000
0001
0000
3100
0000
,
1000
0000
0100
0010
0001
0000
1000
0100
,
0010
0002
0100
0000
1000
0000
0103
0000
,
0000
0000
1000
0100
0001
0000
0001
1000
,
0010
2000
0000
0000
0001
0000
3010
0000
,
0100
1010
0100
0011
,
0100
0001
1100
0011
,
0110
0000
0001
0100
0001
0000
0100
0010
,
1000
0000
0001
0100
1000
0000
1000
0100
,
0110
0000
0001
0010
0001
0100
0010
0100
,
1000
0100
0001
0010
1000
0010
1000
0010
,
0100
0001
0010
0100
,
0010
1010
0100
0110
,
0000
0001
0010
0100
,
1000
0010
0100
0000
,
0110
0000
1000
0100
1000
0000
0100
0010
,
0001
0000
1000
0100
0001
0000
0001
0100
,
0110
0000
1000
0010
1000
0100
0010
0100
,
0001
0100
1000
0010
0001
0010
0001
0010
,
0100
1000
0010
0100
,
0010
0011
0100
0110
,
0000
1000
0010
0100
,
0001
0000
0000
0000
0101
0100
0010
1010
,
0000
0000
1000
0010
0100
0000
0001
0100
,
0000
0100
0010
0001
0100
0001
0010
0100
,
1000
0000
0001
0100
0010
0000
1000
0100
,
0000
0000
0100
0000
0010
0000
0000
0000
0100
0000
0000
0100
0000
0000
0100
0000
,
0000
0000
0001
0010
0100
0000
1000
0100
,
0000
0100
0010
1000
0100
1000
0010
0100
,
0001
0000
0100
0000
1000
0100
0010
0001
,
0200
0000
0000
0000
0000
0310
0010
0010
,
0000
0000
1000
0010
1100
0000
0001
0100
,
0000
0100
0010
0001
0100
0001
0010
0100
,
1010
0000
0001
0100
0011
0000
1000
0100
,
0000
0100
0010
0001
0100
0001
0100
0010
,
1001
0000
0001
0010
0101
0000
1000
0100
,
0000
0100
0010
1000
0100
1000
0010
0100
,
0001
0000
0000
0000
1000
0100
0010
0001
,
0200
0000
0000
0000
0000
0310
0110
0000
,
0002
1000
1003
0000
0010
0001
1100
0000
,
0100
0010
1000
0000
1000
0010
0001
1000
,
0200
0001
0301
0000
1000
0010
0101
0000
,
0100
0001
1000
0010
1000
0010
0100
0001
,
2000
0001
3001
0000
0010
1000
0101
0000
,
0100
0010
0001
0000
0001
0010
1000
0001
,
0200
1000
1300
0000
0001
0010
1100
0000
,
0100
1000
0001
0010
0001
0010
0100
1000
,
0020
0000
0000
0000
,
0000
0030
0000
0000
;
