#TITLE:Makes Me Wonder;
#ARTIST:Sunshine Superman;
#BANNER:Makes Me Wonder.png;
#BACKGROUND:Makes Me Wonder-bg.png;
#CDTITLE:./CDTITLES/DanceDanceRevolution HOTTEST PARTY 2.png;
#MUSIC:Makes Me Wonder.ogg;
#SAMPLESTART:39.952;
#SAMPLELENGTH:15;
#BPMS:0=114;

//---------------dance-single - ----------------
#NOTES:
     dance-single:
     :
     Beginner:
     1:
     :
0000
0000
0000
0000
,
0000
0000
0000
0000
,
0000
0000
0000
0000
,
0000
0000
0000
0000
,
0000
0000
0000
0000
,
0000
1000
0000
0000
,
0000
0010
0000
0000
,
0000
0001
0000
1000
,
0000
0000
0100
0000
,
0000
0001
0000
0000
,
0000
0100
0000
0000
,
0000
0010
0000
0000
,
0000
0000
1000
1000
,
0000
0000
0000
0000
,
2000
0000
0000
3000
,
0000
0000
0000
0000
,
0002
0000
0000
0003
,
0000
0001
0000
0000
,
0000
0010
0000
0000
,
0001
0000
1001
0000
,
0000
1000
0000
0010
,
0000
1000
0000
0100
,
0000
0000
0000
0010
,
0000
0000
0100
0000
,
1000
0000
0100
0000
,
0010
0000
0000
1001
,
0000
0000
0000
0010
,
0000
0001
0000
0000
,
0000
0100
0000
0000
,
0000
1000
0000
0001
,
0000
0000
0010
0000
,
0000
1000
0000
0000
,
0000
0010
0000
0000
,
0000
0100
0000
0000
,
0000
0000
0001
0001
,
0000
0000
0000
0000
,
0002
0000
0000
0003
,
0000
0000
0000
0000
,
2000
0000
0000
3000
,
0000
1000
0000
0000
,
0000
0100
0000
0000
,
1000
0000
1001
0000
,
0000
0001
0000
0100
,
0000
0001
0000
0010
,
0000
0000
0000
0100
,
0000
0000
0010
0000
,
0001
0000
0010
0000
,
0100
0000
0000
1001
,
0000
0000
0000
0000
,
0100
0000
0000
0000
;

//---------------dance-single - ----------------
#NOTES:
     dance-single:
     :
     Easy:
     2:
     :
0000
0000
0000
0000
,
0000
0000
0000
0000
,
0000
0000
0000
0000
,
0000
0000
0000
0000
,
0000
0000
0000
0000
,
0000
1000
0000
0100
,
0000
1000
0000
0010
,
0000
0001
0000
1000
,
0010
0000
0100
0000
,
0000
0001
0000
0100
,
0000
0001
0000
0100
,
0000
0010
0000
0100
,
0000
0000
1000
1001
,
0000
0000
0000
0100
,
2000
0000
0000
3000
,
0000
0000
0000
1000
,
0002
0000
0000
0003
,
0000
0001
0000
1000
,
0000
0010
0000
0000
,
0100
0000
0110
0000
,
0000
1000
0000
0010
,
0000
1000
0000
0100
,
0000
1000
0000
0010
,
0000
0000
0100
0000
,
1000
0001
0100
0000
,
0010
0000
0000
1001
,
0000
0000
0010
0010
,
0000
0001
0000
0010
,
0000
0001
0000
0100
,
0000
1000
0000
0001
,
0100
0000
0010
0000
,
0000
1000
0000
0010
,
0000
1000
0000
0010
,
0000
0100
0000
0010
,
0000
0000
0001
1001
,
0000
0000
0000
0010
,
0002
0000
0000
0003
,
0000
0000
0000
0001
,
2000
0000
0000
3000
,
0000
1000
0000
0001
,
0000
0100
0000
0000
,
0010
0000
0110
0000
,
0000
0001
0000
0100
,
0000
0001
0000
0010
,
0000
0001
0000
0100
,
0000
0000
0010
0000
,
0001
1000
0010
0000
,
0100
0000
0000
1001
,
0000
0000
0100
0100
,
0010
0000
0000
0000
;

//---------------dance-single - ----------------
#NOTES:
     dance-single:
     :
     Medium:
     4:
     :
0000
0000
0000
0000
,
0000
0000
0000
0000
,
0000
0000
0000
0000
,
0000
0000
0000
0000
,
0000
0000
0000
0000
,
0000
0000
1000
0000
0001
0010
0100
0000
,
0000
0000
1000
0000
0010
1000
0010
0000
,
0000
1000
0001
0000
1000
0000
1000
0000
,
0010
0001
0100
0100
,
0000
0000
0001
0000
1000
0010
0100
0000
,
0001
0000
0001
0000
1000
0001
0100
0000
,
0010
0100
0001
0100
,
0000
0000
1000
0101
,
0000
1000
0000
0100
,
2000
0000
0010
3010
,
0000
0001
0000
0010
,
0002
0000
0100
0103
,
0001
0001
1000
1000
,
1000
0010
0100
0001
,
0100
0000
1010
0010
,
1000
1100
0000
0010
,
0100
1000
0000
0100
,
0000
0000
1000
0000
0001
0100
0010
0000
,
0000
0000
0100
0000
,
1000
0001
0100
0010
1000
0000
0000
0000
,
0010
0000
0000
0011
,
0000
0000
0001
0000
1000
0010
0000
0010
,
0000
0000
0001
0000
1000
0100
0010
0000
,
0000
0000
0001
0000
0100
0001
0100
0000
,
0000
0001
1000
0000
0001
0000
0001
0000
,
0100
1000
0010
0010
,
0000
0000
1000
0000
0001
0100
0010
0000
,
1000
0000
1000
0000
0001
1000
0010
0000
,
0100
0010
1000
0010
,
0000
0000
0001
1010
,
0000
0001
0000
0010
,
0002
0000
0100
0103
,
0000
1000
0000
0100
,
2000
0000
0010
3010
,
1000
1000
0001
0001
,
0001
0100
0010
1000
,
0010
0000
0101
0100
,
0001
0011
0000
0100
,
0010
0001
0000
0010
,
0000
0000
0001
0000
1000
0010
0100
0000
,
0000
0000
0010
0000
,
0001
1000
0010
0100
0001
0000
0000
0000
,
0100
0000
0000
1100
,
0000
0000
1000
0000
0001
0100
0010
0000
,
0100
0000
0000
0000
;

//---------------dance-single - ----------------
#NOTES:
     dance-single:
     :
     Hard:
     6:
     :
0000
0000
0000
0000
,
0000
0000
0000
0000
,
0000
0000
0000
0000
,
0000
0000
0000
0000
,
0000
0000
0000
0000
,
0000
1000
0100
0000
0000
1000
0010
0100
,
0000
0010
1000
0000
0100
1000
0010
1000
,
0000
0100
0010
0000
0001
0100
0010
1000
,
0000
0000
0010
1000
0100
0010
0001
0100
,
0000
0001
0010
0001
0000
0001
0100
0010
,
0100
0001
0010
0001
0100
0001
0000
0000
,
0100
0000
0010
0100
0010
0000
0100
0000
,
0000
0001
1000
0010
0010
0000
0101
0000
,
0000
0010
0000
0001
,
2000
0000
0000
0000
0010
0010
3010
0000
,
0000
0100
0000
1000
,
0002
0000
0000
0000
0100
0100
0103
0000
,
0001
0100
0001
0000
1000
0010
1000
0000
,
1100
0011
0000
0001
,
0100
0001
0010
0000
1010
0000
0001
0000
,
1000
1100
0010
0010
,
0100
0000
0001
1000
0010
0100
0101
0000
,
1000
0100
1000
0000
0010
0100
0001
0000
,
0000
0000
0100
0001
,
1000
0001
0100
0010
1000
0001
0100
0010
,
0100
0000
0000
0011
,
0000
0010
1000
0000
0001
0110
0000
0011
,
0000
0001
0010
0000
0000
0001
0100
0010
,
0000
0100
0001
0000
0010
0001
0100
0001
,
0000
0010
0100
0000
1000
0010
0100
0001
,
0000
0000
0100
0001
0010
0100
1000
0010
,
0000
1000
0100
1000
0000
1000
0010
0100
,
0010
1000
0100
1000
0010
1000
0000
0000
,
0010
0000
0100
0010
0100
0000
0010
0000
,
0000
1000
0001
0100
0100
0000
1010
0000
,
0000
0100
0000
1000
,
0002
0000
0000
0000
0100
0100
0103
0000
,
0000
0010
0000
0001
,
2000
0000
0000
0000
0010
0010
3010
0000
,
1000
0010
1000
0000
0001
0100
0001
0000
,
0011
1100
0000
1000
,
0010
1000
0100
0000
0101
0000
1000
0000
,
0001
0011
0100
0100
,
0010
0000
1000
0001
0100
0010
1010
0000
,
0001
0010
0001
0000
0100
0010
1000
0000
,
0000
0000
0010
1000
,
0001
1000
0010
0100
0001
1000
0010
0100
,
0010
0000
0000
1100
,
0000
0000
0100
0000
0011
0000
0000
0000
1000
0000
0110
0000
0000
0000
0100
0010
,
0100
0000
0000
0000
;
