#TITLE:I Want Candy;
#ARTIST:Pop n' Fresh;
#BANNER:I Want Candy.png;
#BACKGROUND:I Want Candy-bg.png;
#CDTITLE:./CDTITLES/DanceDanceRevolution HOTTEST PARTY 2.png;
#MUSIC:I Want Candy.ogg;
#SAMPLESTART:29.23;
#SAMPLELENGTH:15;
#BPMS:0=123;

//---------------dance-single - ----------------
#NOTES:
     dance-single:
     :
     Beginner:
     1:
     :
0000
0000
0000
0000
,
0000
0000
0000
0000
,
0000
0000
0000
0000
,
0000
0000
0000
1001
,
0000
0000
1000
0001
,
0000
0000
0000
1001
,
0000
0000
0001
1000
,
0000
1000
0000
0010
,
0000
0000
0000
0110
,
0000
1000
0000
0100
,
0000
0000
0000
0110
,
0000
0001
0000
0010
,
0000
0000
0000
0110
,
0000
0001
0000
0100
,
0000
0200
0000
0300
,
0000
0100
0000
0010
,
0000
0000
0010
0010
,
0000
0010
0000
0100
,
0000
0000
0100
0100
,
0000
0100
0000
0010
,
0000
0000
0010
0010
,
0000
0010
0000
0100
,
0000
0000
0100
0100
,
0000
0000
0000
0000
,
0000
1001
0000
1001
,
0000
0000
0010
0010
,
0010
0000
0000
0110
,
0000
0000
0001
0001
,
0000
0000
1000
1000
,
0000
0110
0000
1001
,
0000
0000
0000
0000
,
0000
0100
0000
0010
,
0000
0000
0010
0010
,
0000
0010
0000
0100
,
0000
0000
0100
0100
,
0000
0100
0000
0010
,
0000
0000
0010
0010
,
0000
0010
0000
0100
,
0000
0000
0100
0100
,
0000
0100
0000
1001
,
0000
0000
1000
0001
,
0000
0010
0000
1001
,
0000
0000
0001
1000
,
0000
0000
0000
0000
,
0000
0110
0000
1001
,
0000
0100
0100
0100
,
0100
0000
0000
0000
,
1001
0000
0000
0000
;

//---------------dance-single - ----------------
#NOTES:
     dance-single:
     :
     Easy:
     3:
     :
0000
0000
0000
0000
,
0000
0000
0000
0000
,
0000
0000
0000
0000
,
0010
0000
1000
1001
,
0100
0000
1000
0001
,
0010
0000
0001
1001
,
0000
0100
0010
0110
,
0000
1000
0010
1000
,
0000
0010
0100
0010
,
0000
1000
0100
1000
,
0000
0100
0010
0100
,
0000
0001
0010
0001
,
0000
0010
0100
0010
,
0000
0001
0100
0001
,
0200
0000
0000
0300
,
0000
0100
1000
0010
,
0000
0000
0100
0110
,
0000
0010
1000
0100
,
0000
0000
0010
0110
,
0000
0100
0001
0010
,
0000
0000
1000
1001
,
0000
0010
0001
0100
,
0000
0000
0001
1001
,
0000
0000
0000
0000
,
0000
1001
0000
0110
,
0000
0000
0000
0000
,
1000
0000
0001
0000
0100
0100
0100
0000
,
0002
0010
0100
0103
,
2000
0100
0010
3010
,
0000
0110
0000
1001
,
0000
0000
0000
0000
,
0000
0100
0001
0010
,
0000
0000
0100
0110
,
0000
0010
0001
0100
,
0000
0000
0010
0110
,
0000
0100
1000
0010
,
0000
0000
0001
1001
,
0000
0010
1000
0100
,
0000
0000
1000
1001
,
0000
0100
1000
1001
,
0000
0001
1000
0001
,
0000
0010
0001
1001
,
0000
0100
0010
0110
,
0000
0000
0000
0000
,
0000
0110
0000
1001
,
0000
0000
0100
0000
0100
0100
0100
0100
,
0000
0000
0000
0000
,
1001
0000
0000
0000
;

//---------------dance-single - ----------------
#NOTES:
     dance-single:
     :
     Medium:
     5:
     :
0000
0000
0000
0000
,
0000
0000
0000
0000
,
0000
0000
0000
0000
,
1000
0000
0000
0100
0000
0000
0010
0000
0000
0000
0001
0000
0010
0000
0000
0000
,
1000
0000
0000
1000
0000
0000
1000
0000
0000
0000
0100
0000
0101
0000
0000
0000
,
0001
0000
0000
0010
0000
0000
0100
0000
0000
0000
1000
0000
0100
0000
0000
0000
,
0020
0000
0000
0030
0000
0100
0110
0000
,
1100
0000
0000
0000
1000
0010
0001
0000
,
0100
0000
0000
0100
0000
0000
0100
0000
0000
0000
0010
0000
0011
0000
0000
0000
,
1100
0000
0000
0000
1000
0100
0001
0000
,
0100
0000
0000
0100
0000
0000
0100
0000
0000
0000
0010
0000
1010
0000
0000
0000
,
0011
0000
0000
0000
0001
0010
1000
0000
,
0010
0000
0000
0010
0000
0000
0010
0000
0000
0000
0100
0000
1100
0000
0000
0000
,
0011
0000
0000
0000
0001
0100
1000
0000
,
0020
0000
0100
0130
,
0001
0100
0010
1010
,
0100
0000
0000
0100
0000
0000
0110
0000
0000
0000
1000
0000
0001
0000
0000
0000
,
0001
0010
0100
1100
,
0010
0000
0000
0010
0000
0000
0110
0000
0000
0000
0001
0000
1000
0000
0000
0000
,
1000
0100
0010
0011
,
1000
0000
0000
1000
0000
0000
1001
0000
0000
0000
0100
0000
0010
0000
0000
0000
,
1000
0010
0100
0101
,
0001
0000
0000
0001
0000
0000
1001
0000
0000
0000
0010
0000
0100
0000
0000
0000
,
0002
0000
0000
0000
1000
1000
1003
0000
,
1000
0100
0010
0000
0010
0100
1000
0000
,
2000
0000
0001
0000
0001
0001
3001
0000
,
0100
0001
0010
1000
0100
0100
0100
0000
,
0020
0000
0001
0000
0100
0100
0130
0000
,
0200
0000
1000
0000
0010
0010
0310
0000
,
2000
0010
0010
3010
,
0002
0000
0200
0303
,
1000
0100
0010
0011
,
0100
0000
0000
0100
0000
0000
0110
0000
0000
0000
0001
0000
1000
0000
0000
0000
,
1000
0010
0100
0101
,
0010
0000
0000
0010
0000
0000
0110
0000
0000
0000
1000
0000
0001
0000
0000
0000
,
0001
0100
0010
1010
,
0001
0000
0000
0001
0000
0000
1001
0000
0000
0000
0100
0000
0010
0000
0000
0000
,
0001
0010
0100
1100
,
1000
0000
0000
1000
0000
0000
1001
0000
0000
0000
0010
0000
0100
0000
0000
0000
,
0020
0000
0130
1100
,
0001
0000
0000
0010
0000
0000
0100
0000
0000
0000
1000
0000
1001
0000
0000
0000
,
0020
0000
0130
0101
,
0020
0000
0000
0030
0000
0100
0110
0000
,
2000
0000
0000
0000
0001
0001
3001
0000
,
0001
0010
0100
0000
0100
0010
0001
0000
,
0011
0000
1010
0000
0100
0100
0100
0100
,
0020
0000
0000
0030
0000
0100
0010
0000
,
1001
0000
0000
0000
;

//---------------dance-single - ----------------
#NOTES:
     dance-single:
     :
     Hard:
     8:
     :
0000
0000
0000
0000
,
0000
0000
0000
0000
,
0000
0000
0000
0000
,
0001
0000
0000
0010
0000
0000
1000
0000
0000
0000
0100
0000
0010
0000
1000
0000
,
0001
0000
0000
0010
0100
0010
0100
0000
0000
0000
0001
0000
1000
0000
0000
0000
,
0001
0000
0000
0100
0000
0000
1000
0000
0000
0000
0100
0000
0010
0000
0001
0000
,
1000
0001
1000
0001
1000
0001
0000
0100
0000
0000
0001
0000
1000
0000
0000
0000
,
0200
0000
0000
0000
0010
0010
0310
0000
,
1000
0000
0000
0100
0000
0000
0010
0000
0000
0000
0001
0000
1000
0000
0001
0000
,
0020
0000
0000
0000
0100
0100
0130
0000
,
1000
0000
0000
0010
0000
0000
0100
0010
0000
0000
0001
0000
1001
0000
0000
0000
,
0200
0000
0000
0000
0010
0010
0310
0000
,
1000
0000
0000
0010
0000
0000
0100
0000
0000
0000
0001
0000
1000
0000
0001
0000
,
0020
0000
0000
0000
0100
0100
0130
0000
,
1000
0001
0010
0001
0010
0100
0010
0100
,
1000
0001
0010
0000
1100
0000
0011
0000
,
0010
0000
0000
0101
0000
0000
1000
0000
0000
0000
1000
0000
1010
0000
0000
0000
,
1000
0010
0100
1000
0011
0000
1100
0000
,
0100
0000
0000
0101
0000
0000
1000
0010
0000
0000
0001
0000
0011
0000
0000
0000
,
0001
0100
0010
0000
0101
0000
1010
0000
,
0001
0000
0000
0011
0000
0000
0100
0000
0000
0000
0100
0000
0101
0000
0000
0000
,
0001
1000
0100
0001
1010
0000
0101
0000
,
1000
0000
0000
1100
0000
0000
0010
0001
0000
0000
0010
0000
1000
0000
0100
0000
,
1000
0100
0000
0000
0100
0010
0000
0000
0010
0001
0000
0000
0001
0000
0010
0000
,
0100
1000
0000
0000
1000
0100
0000
0000
1000
0000
0010
0000
0001
0000
1000
0000
,
0100
0001
0000
0000
0010
1000
0000
0000
0100
1000
0000
0000
0010
0001
0000
0000
,
1000
0100
0000
0000
0001
0010
0000
0000
0100
0000
0100
0000
0100
0000
0000
0000
,
0001
0010
0001
0000
0010
0010
0010
0000
,
1000
0010
1000
0010
0100
0100
0100
0000
,
0001
1000
0000
0001
0010
0001
0010
0001
0010
0100
0010
0100
0010
0000
0100
0000
,
0020
0000
0200
0330
,
1000
0010
0100
0000
1010
0000
0011
0000
,
1000
0000
0000
0110
0000
0000
0001
0000
0000
0000
0010
0000
0011
0000
0000
0000
,
1000
0001
0010
1000
0101
0000
1100
0000
,
0001
0000
0000
0011
0000
0000
0100
1000
0000
0000
0010
0000
1010
0000
0000
0000
,
0001
1000
0100
0000
0011
0000
1010
0000
,
0010
0000
0000
0110
0000
0000
0001
0000
0000
0000
1000
0000
1010
0000
0000
0000
,
0001
1000
0010
0001
1100
0000
0101
0000
,
0100
0000
0000
0110
0000
0000
0100
1000
0000
0000
0001
0000
0100
0000
0010
0000
,
1000
0100
0000
0000
0100
0001
0000
0000
0001
0100
0000
0000
1010
0000
0000
0000
,
0100
0000
0000
0001
1000
0001
1000
0000
0000
0000
0100
0000
0010
0000
0100
0000
,
0001
0010
0000
0000
0010
1000
0000
0000
1000
0010
0000
0000
0101
0000
0000
0000
,
0010
0100
0010
0100
0010
0100
0000
0001
0000
0000
0010
0000
0100
0000
0010
0000
,
0001
0010
0000
0000
0010
0100
0000
0000
0100
1000
0000
0000
1000
0000
0100
0000
,
0010
0001
0000
0000
0001
0010
0000
0000
0001
0000
0100
0000
1000
0000
0001
0000
,
0010
1000
0000
0000
0100
0001
0000
0000
0100
0000
0100
0000
0100
0000
0100
0000
,
1000
0001
1000
0001
1000
0001
0000
0100
0000
0000
0001
0000
1000
0000
0000
0000
,
0110
0000
0000
0000
;
