#TITLE:I WANT YOUR LOVE (Darwin remix);
#ARTIST:GAV;
#BANNER:I WANT YOUR LOVE (Darwin remix).png;
#BACKGROUND:I WANT YOUR LOVE (Darwin remix)-bg.png;
#CDTITLE:./CDTITLES/DanceDanceRevolution HOTTEST PARTY 2.png;
#MUSIC:I WANT YOUR LOVE (Darwin remix).ogg;
#SAMPLESTART:22.554;
#SAMPLELENGTH:15;
#BPMS:0=170;

//---------------dance-single - ----------------
#NOTES:
     dance-single:
     :
     Beginner:
     2:
     :
0000
0000
0000
0000
,
0000
0000
0000
0000
,
0000
0000
0000
0000
,
0000
0000
0000
0000
,
0000
0000
0000
0000
,
2000
0000
0000
3000
,
0000
0000
0000
0000
,
0002
0000
0000
0003
,
0000
0000
0000
0000
,
1000
0000
0000
0000
,
0001
0000
0000
0000
,
1000
0000
0000
0000
,
0010
0000
0000
0000
,
0100
0000
0000
0000
,
0010
0000
0000
0000
,
2002
0000
0000
3003
,
0000
0000
0000
0000
,
2000
0000
0000
3000
,
0000
0000
0000
0000
,
0002
0000
0000
0003
,
0000
0000
0000
0000
,
2000
0000
0000
3000
,
0000
0000
0000
0000
,
0002
0000
0003
0000
,
2000
0000
0000
0000
,
0002
0000
0000
3003
,
0000
0000
0000
0000
,
0020
0000
0000
0030
,
0000
0000
0000
0000
,
0200
0000
0000
0300
,
0000
0000
0000
0000
,
0020
0000
0000
0000
,
0000
0030
0000
0000
,
0002
0000
0000
0000
,
0000
0000
0003
0000
,
2000
0000
0000
0000
,
0000
0000
3000
0000
,
0200
0000
0000
0000
,
0000
0000
0300
0000
,
0002
0000
0000
0000
,
0000
0000
0003
0000
,
2000
0000
0000
0000
,
0000
0000
3000
0000
,
0002
0000
0000
0000
,
0000
0000
0003
0000
,
2000
0000
0000
0000
,
0000
0000
3000
0000
,
1001
0000
0000
0000
,
2000
0000
0000
0000
,
0002
0000
0000
3003
,
0000
0000
0000
0000
,
1000
0000
0000
0000
,
1000
0000
1000
0000
,
0001
0000
0000
0000
,
0001
0000
0001
0000
,
1000
0000
0000
0000
,
0002
0000
0000
0000
,
2000
0000
0000
3003
,
0000
0000
0000
0000
,
1000
1000
1000
1000
,
0000
0000
0000
0000
,
0001
0001
0001
0001
,
0000
0000
0000
0000
,
0100
0100
0100
0100
,
0000
0000
0000
0000
,
2002
0000
0000
0000
,
0000
0000
0000
3003
;

//---------------dance-single - ----------------
#NOTES:
     dance-single:
     :
     Easy:
     3:
     :
0000
0000
0000
0000
,
0000
0000
0000
0000
,
0000
0000
0000
0000
,
0000
0000
0000
0000
,
0000
0000
0000
0000
,
2000
0000
0000
3000
,
0000
0000
0000
0000
,
0002
0000
0000
0003
,
0000
0000
0000
0000
,
2000
0000
0001
3000
,
0200
0000
0010
0300
,
0002
0000
0100
0003
,
0020
0000
1000
0030
,
0200
0000
0000
0300
,
2000
0010
0000
3010
,
2002
0000
0000
3003
,
0100
0100
0100
0100
,
2000
0000
0000
3000
,
0001
0000
0100
1000
,
0002
0000
0000
0003
,
1000
0000
0010
0001
,
2000
0000
0000
3000
,
0001
0000
0010
1000
,
0002
0000
0003
0000
,
2000
0000
0000
0010
,
0002
0000
0000
3003
,
1000
0100
1000
0001
,
0020
0000
0000
0030
,
0001
0100
0001
1000
,
0200
0000
0000
0300
,
1000
0001
1000
0001
,
0200
0000
0000
0000
,
0000
0300
0000
0000
,
2000
0000
0000
0000
,
0010
0010
0100
3100
,
0002
0000
0000
0000
,
0100
0100
0010
0013
,
0200
0000
0000
0000
,
1000
1000
0010
0310
,
0002
0000
0000
1000
,
1000
0000
0000
0003
,
0000
0000
1000
2000
,
0000
0000
3001
0002
,
0000
0000
0003
0000
,
0100
0010
0001
0000
,
2000
0000
0000
3000
,
0100
0010
1000
0000
,
2002
0000
0000
3003
,
2000
0000
0000
0010
,
0002
0000
0000
3003
,
0002
0000
1000
0000
,
2000
0000
0000
0003
,
0100
0000
0100
3000
,
0002
0000
0000
0000
,
1000
0000
1000
0003
,
2000
0000
0000
3000
,
0002
0000
0000
0100
,
2000
0000
0000
3003
,
1000
0000
0001
0000
,
1000
1000
1000
1000
,
0001
0000
1000
0000
,
0001
0001
0001
0001
,
1000
0000
0001
0000
,
0100
0100
0010
0010
,
1000
0001
1000
0001
,
2002
0000
0000
0000
,
0000
0000
0000
3003
;

//---------------dance-single - ----------------
#NOTES:
     dance-single:
     :
     Medium:
     6:
     :
0000
0000
0000
0000
,
0000
0000
0000
0000
,
0000
0000
0000
0000
,
0000
0000
0000
0000
,
0000
0000
0000
0000
,
0002
0000
0000
0003
,
2000
0000
0000
3000
,
0020
0000
0000
0030
,
0200
0000
0000
0300
,
0002
1000
0000
1003
,
0020
0100
0000
0130
,
2000
0010
0000
3010
,
0200
0001
0000
0301
,
0020
0000
0000
0030
,
0002
0100
0100
0103
,
2002
0000
0000
3003
,
0010
0100
0010
0100
0010
0100
0010
0100
,
0002
0000
1000
0000
1003
0000
0001
0100
,
0010
0000
0010
1000
0100
0000
0100
0010
,
2000
0000
0001
0000
3001
0000
1000
0010
,
0100
0000
0100
0001
0010
0000
0010
0100
,
0002
0000
1000
0000
1003
0000
0001
0100
,
0010
0000
0010
1000
0100
0000
0100
0010
,
2000
0000
3000
0000
,
0002
0000
0003
0100
,
2000
0000
0000
0000
3000
0000
1000
0100
,
0001
0100
1000
0000
0001
0010
0001
0000
,
0200
0000
0000
0000
0300
0000
0001
0100
,
1000
0100
0001
0000
1000
0010
1000
0000
,
0200
0000
0000
0000
0300
0000
0001
0010
,
1000
0010
0001
0000
1000
0100
1000
0000
,
0020
0000
0000
0000
,
0000
0030
0000
0000
,
0200
0000
0000
0000
0000
0000
1300
0100
,
0000
1000
0000
0100
0000
0010
0000
0001
,
2000
0000
0000
0000
0000
0000
3001
0100
,
0000
0001
0000
0010
0000
0100
0000
1000
,
0020
0000
0000
0000
0000
0000
0031
0010
,
0000
0001
0000
0010
0000
0100
0000
1000
,
0002
0000
0000
0000
0000
0000
1003
0010
,
0000
1000
0000
0100
0000
0010
0000
0001
,
0000
0000
0100
2000
,
0000
0000
3010
0002
,
0000
0000
0000
0000
0003
0000
0010
0010
,
0010
1000
0100
0010
,
2000
0000
0000
3000
,
0000
0001
0010
0100
,
2200
0000
0000
3300
,
2000
0000
3000
0010
,
0002
1000
0000
1003
,
0002
0000
2003
3000
,
0200
0010
0000
0310
,
2000
0000
3002
0003
,
0020
0100
0000
0130
,
0002
0000
0203
0300
,
2000
0001
0000
3001
,
0002
0000
0003
0100
,
2000
0100
3100
0100
,
1000
0100
1000
0000
0001
0100
0001
0000
,
1000
1000
1000
1000
,
0001
0100
0001
0000
1000
0100
1000
0000
,
0001
0001
0001
0001
,
1000
0001
1000
0000
0001
1000
0001
0000
,
0100
0010
0100
0000
0010
0100
0010
0000
,
1000
0001
1000
0001
1000
0001
1000
0001
,
2002
0000
0000
0000
,
0000
0000
0000
3003
;

//---------------dance-single - ----------------
#NOTES:
     dance-single:
     :
     Hard:
     7:
     :
0000
0000
0000
0000
,
0000
0000
0000
0000
,
0000
0000
0000
0000
,
0000
0000
0000
0000
,
0000
0000
0000
0000
,
2000
0000
0000
3000
,
0002
0000
0000
0003
,
0200
0000
0000
0300
,
0020
0000
0000
0030
,
2000
0001
0000
0000
0001
0000
0000
0000
0100
0000
0000
0000
3001
0000
0000
0000
,
0020
0100
0000
0000
0100
0000
0000
0000
1000
0000
0000
0000
0130
0000
0000
0000
,
0002
0010
0000
0000
0010
0000
0000
0000
0100
0000
0000
0000
0013
0000
0000
0000
,
0200
1000
0000
0000
1000
0000
0000
0000
0001
0000
0000
0000
1300
0000
0000
0000
,
0020
0001
0000
0000
0001
0000
0000
0000
1000
0000
0000
0000
0031
0000
0000
0000
,
2000
0100
0000
0000
0100
0000
0000
0000
0010
0000
0000
0000
3100
0000
0000
0000
,
2002
0000
0000
3003
,
0010
0000
0100
0000
0010
0000
0100
0000
0001
1000
0001
1000
0001
1000
0001
1000
,
0002
0000
1000
0000
0103
0000
0001
0100
,
0020
0000
0030
0000
2000
0100
3000
0000
0200
0010
0300
0000
0020
0001
0030
0000
,
2100
0000
0001
0000
3010
0000
1000
0100
,
0020
0000
0030
0000
0002
0010
0003
0000
0020
0100
0030
0000
0200
1000
0300
0000
,
0012
0000
1000
0000
0103
0000
0001
0100
,
0020
0000
0030
0000
2000
0100
3000
0000
0200
0010
0300
0000
0020
0001
0030
0000
,
2000
0000
3000
0000
,
0002
0000
0000
0000
0000
0020
0000
0000
0003
0000
0000
0000
0230
0000
0000
0000
,
2300
0000
0000
0000
3000
0000
0001
0010
,
0200
1000
0300
0000
2000
0100
3000
0000
0200
0010
0300
0000
0020
0100
0030
0000
,
0200
1000
0000
0000
0000
0000
0000
0000
0300
0000
0000
0000
1000
0000
0100
0000
,
0020
0001
0030
0000
0002
0010
0003
0000
0020
0100
0030
0000
0200
0010
0300
0000
,
0020
0001
0000
0000
0000
0000
0000
0000
0030
0000
0000
0000
0100
0000
1000
0000
,
0002
0100
0003
0000
0200
0010
0300
0000
0020
1000
0030
0000
2000
0001
3000
0000
,
0200
0010
0000
0000
0000
0000
0000
0000
0000
0000
0000
0000
0000
0000
0000
0000
,
0000
0300
0000
0000
,
0020
0000
1000
0000
1000
0000
1030
0100
,
0010
0100
0000
1000
0000
0100
0000
0001
,
2000
0000
0100
0000
0100
0000
3100
0001
,
0100
1000
0000
0100
0000
1000
0000
0001
,
0200
0000
0001
0000
0001
0000
0301
0010
,
0100
0010
0000
0001
0000
0010
0000
1000
,
0002
0000
0010
0000
0010
0000
0013
1000
,
0010
0001
0000
0010
0000
0001
0000
1000
,
2000
0000
0100
0000
0100
0000
3100
0100
,
0000
0010
0000
0001
0000
0100
0010
0100
,
0002
0000
0010
0000
0010
0000
0013
0010
,
0000
0100
0000
1000
0000
0010
0100
0010
,
2000
0000
0100
0000
0100
0000
3100
0100
,
0000
0010
0000
0001
0000
0100
0010
0100
,
2200
0000
0000
3300
,
2000
0000
0000
0200
3000
0000
0320
0000
,
0032
0000
0000
0000
0003
0000
0001
0001
,
0002
2003
3200
0320
,
0200
0000
0030
0000
0000
0000
1300
1000
,
2000
3002
0023
0230
,
0020
0000
0300
0000
0000
0000
0031
0001
,
0002
0203
0320
2030
,
0200
3000
0000
0300
,
0002
0000
0000
0020
0003
0000
0230
0000
,
2300
0100
3100
0100
,
1000
0100
0001
0000
0001
0100
1000
0000
,
1000
1000
1000
1000
,
0001
0100
1000
0000
1000
0100
0001
0000
,
0001
0001
0001
0001
,
0001
0100
0010
0000
0010
0100
0001
0000
,
1000
0010
0100
0000
0100
0010
1000
0000
,
0010
0100
1000
0001
0010
0001
1000
0001
,
2002
0000
0000
0000
,
0000
0000
0000
3003
;
