#TITLE:Feel Together;
#ARTIST:Mickey Disco;
#BANNER:Feel Together.png;
#BACKGROUND:Feel Together-bg.png;
#CDTITLE:./CDTITLES/DanceDanceRevolution HOTTEST PARTY 2.png;
#MUSIC:Feel Together.ogg;
#SAMPLESTART:32.781;
#SAMPLELENGTH:15;
#BPMS:0=128;

//---------------dance-single - ----------------
#NOTES:
     dance-single:
     :
     Beginner:
     1:
     :
0000
0000
0000
0000
,
0000
0000
0000
0000
,
0000
0000
0000
0000
,
0000
0100
0000
0100
,
0000
0001
0001
0000
,
0000
1000
1000
0000
,
0100
0000
0000
0000
,
0001
0000
1000
0000
,
1000
0000
0001
0000
,
0010
0000
0000
0000
,
0000
0010
0000
0010
,
0000
0100
0000
0100
,
0000
0001
0001
0000
,
0000
1000
1000
0000
,
0100
0000
0000
0000
,
0001
0000
1000
0000
,
1000
0000
0001
0000
,
0010
0000
0000
0000
,
0110
0000
0000
0000
,
1001
0000
0000
0000
,
0001
0000
0001
0000
,
1000
0000
1000
0000
,
0110
0000
0000
0000
,
1001
0000
0000
0000
,
0001
0000
0001
0000
,
1000
0000
1000
0000
,
0001
0000
0100
0000
,
1000
0000
0100
0000
,
0001
0001
1000
1000
,
0001
0001
0001
0000
,
1000
0000
0100
0000
,
0001
0000
0100
0000
,
1000
1000
0001
0001
,
1000
1000
1000
0000
,
0110
0000
0000
0000
,
1001
0000
0000
0000
,
0001
0000
0001
0000
,
1000
0000
1000
0000
,
0110
0000
0000
0000
,
1001
0000
0000
0000
,
0001
0000
0001
0000
,
1000
0000
1000
0000
,
0000
0010
0000
0010
,
0000
0100
0000
0100
,
0000
0001
0001
0000
,
0000
1000
1000
0000
,
0000
0010
0000
0010
,
0000
0100
0000
0100
,
0000
0001
0001
0000
,
0000
1000
1000
0000
,
1001
0000
0000
0000
;

//---------------dance-single - ----------------
#NOTES:
     dance-single:
     :
     Easy:
     3:
     :
0000
0000
0000
0000
,
0000
0000
0000
0000
,
0000
0000
0000
0000
,
0000
0100
0000
1000
,
0000
0010
0000
1000
,
0000
0010
0000
0001
,
0000
0100
0000
0000
,
0001
1000
0001
0000
,
1000
0001
1000
0001
,
0000
1000
0000
0001
,
0000
0100
0000
1000
,
0000
0010
0000
0001
,
0000
0100
0000
0001
,
0000
0100
0000
1001
,
0000
0010
0000
0000
,
1000
0001
1000
0000
,
0001
1000
0001
1000
,
0000
0001
0000
1000
,
0001
0000
0100
0000
,
1000
0000
0010
0000
,
0010
0000
0100
0000
,
0010
0000
0100
0000
,
0001
0000
0100
0000
,
1000
0000
0010
0000
,
0010
0000
0100
0000
,
0010
0000
0100
0000
,
0000
1000
0000
0001
,
0000
0100
0000
0010
,
1000
0001
1000
0100
,
0010
0100
0001
1000
,
0100
0000
1000
1000
,
0010
0000
0001
0001
,
1000
0001
1000
0001
,
0100
0100
0100
0000
,
0001
0000
0100
0000
,
1000
0000
0010
0000
,
0010
0000
0100
0000
,
0010
0000
0100
0000
,
1000
0000
0100
0000
,
0001
0000
0010
0000
,
0010
0000
0100
0000
,
0010
0000
0100
0000
,
0000
0100
0000
0001
,
0000
0010
0000
1000
,
0001
1000
0001
0000
,
1000
0001
1000
0001
,
0000
0100
0000
1000
,
0000
0010
0000
0001
,
1000
0001
1000
0000
,
0001
1000
0001
1000
,
1001
0000
0000
0000
;

//---------------dance-single - ----------------
#NOTES:
     dance-single:
     :
     Medium:
     5:
     :
0000
0000
0000
0000
,
0000
0000
0000
0000
,
0000
0000
0000
0000
,
0001
0010
1000
0001
,
0001
0100
1000
0001
,
0010
0100
1000
0001
,
1000
0100
0001
1000
,
1010
0000
0001
0000
0100
1000
0100
0000
,
1000
0100
1000
0000
0010
0100
1000
0000
,
0001
0100
0001
0000
1000
0100
1000
0000
,
1000
0100
0001
1000
,
1000
0010
0001
1000
,
1000
0010
0001
1000
,
0010
0100
0001
1000
,
0001
0010
1000
0001
,
0101
0000
1000
0000
0010
0001
0010
0000
,
0001
0010
0001
0000
0100
0010
0001
0000
,
1000
0010
1000
0000
0001
0010
0001
0000
,
1000
0000
0100
0000
0001
0010
0100
0000
,
0001
0000
1100
0000
0010
1000
0001
0000
,
0001
0010
0010
1000
,
0001
0000
1000
0001
0100
0000
0010
0000
,
1001
0000
0000
0000
1000
0010
0100
0000
,
1001
0000
0000
0000
0010
0001
1000
0000
,
0110
1001
0110
1001
,
1000
0000
0100
0100
,
0010
0011
0000
0000
0001
0100
0000
0100
,
0010
1010
0000
0000
1000
0010
0000
0010
,
0100
1100
0000
0000
1000
0010
0000
0010
,
0100
0101
0000
0000
0001
0010
0000
0010
,
0100
1000
0100
0001
,
0010
1000
0010
0001
,
0101
0000
1100
0000
,
0110
0100
0100
0000
,
1000
0000
0010
0000
1000
0100
0010
0000
,
1000
0000
0011
0000
0100
0001
1000
0000
,
0001
0100
0100
1000
,
0001
0000
1000
0001
0010
0000
0100
0000
,
1001
0000
0000
0000
1000
0100
0010
0000
,
1001
0000
0000
0000
0010
1000
0001
0000
,
0110
1001
0110
1001
,
1000
0000
0010
0010
,
1000
0000
0100
0000
0001
0010
0100
0000
,
1000
0000
0101
0000
0010
1000
0001
0000
,
1001
1010
0110
1100
,
0110
0000
0001
1000
0100
0000
1100
0000
,
1001
0000
0010
0100
1000
0100
0010
0001
,
1001
0000
0100
0010
1000
0010
0100
0001
,
1001
0101
0110
0011
,
0110
0000
1000
0000
0001
0010
0100
1000
,
1100
0000
0000
0000
;

//---------------dance-single - ----------------
#NOTES:
     dance-single:
     :
     Hard:
     7:
     :
0000
0000
0000
0000
,
0000
0000
0000
0000
,
0000
0000
0000
0000
,
1000
0000
0100
0001
0100
0000
0010
0000
,
0001
1000
0100
0000
0010
0001
1000
0000
,
0010
0100
0001
1000
0010
0100
0001
0000
,
0010
0000
1100
0000
0010
1000
0001
0000
,
0020
0100
0031
1010
,
0200
0010
1300
0101
,
1000
0100
1000
0100
0010
0001
0010
0001
,
1000
0000
0010
0001
0010
0000
0100
0000
,
0001
1000
0010
0000
0100
0001
1000
0000
,
0100
0010
0001
1000
0100
0010
0001
0000
,
0100
0000
1010
0000
0100
1000
1001
0000
,
0200
0000
0010
0000
0301
0010
1100
0000
,
0020
0000
0100
0000
1030
0100
0011
0000
,
1000
0010
1000
0010
0100
0001
0100
0001
,
0010
0100
1000
0001
0010
0100
0010
0001
,
0001
0000
0100
1000
0100
0001
0011
0000
,
1000
0001
0100
0000
0010
1000
1001
0000
,
0010
0100
1000
0001
0000
0100
1000
0100
,
0010
0000
0101
0000
0010
0001
1001
0000
,
0020
0000
0100
0000
1030
0100
0011
0000
,
0200
0000
0010
0000
0301
0010
1100
0000
,
0001
0100
0001
0100
0010
1000
0010
1000
,
0100
0010
0001
1000
0100
0010
0100
1000
,
0001
0101
0000
0100
0010
1000
0000
1000
,
0001
0011
0000
0010
0100
0001
0000
0001
,
1000
1100
0000
0100
0010
0001
0000
0001
,
1000
1010
0000
0010
0100
1000
0000
1000
,
0001
0110
1000
0110
,
0010
1001
0100
1001
,
0001
1010
1000
0101
,
0010
1100
0101
0000
,
0101
0100
0010
1000
0100
0010
0100
0010
,
1010
0010
0100
0001
0010
0100
0010
0100
,
1000
0000
1100
0000
0101
0000
0010
1000
,
0001
0000
0011
0000
1010
0000
0100
0001
,
1100
0100
0010
0001
0100
0010
0100
0010
,
0011
0010
0100
1000
0010
0100
0010
0100
,
0001
0000
0101
0000
1100
0000
0010
0001
,
1000
0000
1010
0000
0011
0000
0100
1000
,
0101
0000
0010
1000
0100
0010
0100
0010
,
1010
0000
0100
0001
0010
0100
0010
0100
,
1000
0100
1100
0001
0101
0100
0010
1000
,
0001
0010
0011
1000
1010
0010
0100
0001
,
1100
0000
0010
0001
0100
0010
0100
0010
,
0011
0000
0100
1000
0010
0100
0010
0100
,
0001
0100
0101
0001
1100
0000
0010
0001
,
1000
0010
1010
1000
0011
0000
0100
1000
,
0101
0000
0000
0000
;
