#TITLE:FIVE O'Clock;
#ARTIST:flow;
#BANNER:FIVE O'Clock.png;
#BACKGROUND:FIVE O'Clock-bg.png;
#CDTITLE:./CDTITLES/DanceDanceRevolution HOTTEST PARTY 2.png;
#MUSIC:FIVE O'Clock.ogg;
#SAMPLESTART:2.478;
#SAMPLELENGTH:15;
#BPMS:0=96;

//---------------dance-single - ----------------
#NOTES:
     dance-single:
     :
     Beginner:
     1:
     :
0000
0000
0000
0000
,
0000
0000
0000
0000
,
0000
0000
0000
0000
,
0000
0000
0000
0000
,
0000
0000
0000
0000
,
1000
0000
0000
0000
,
0001
0000
0000
0000
,
1000
0000
0000
0000
,
0001
0000
0000
0000
,
0001
0000
0001
0000
,
0100
0000
0100
0000
,
1000
0000
1000
0000
,
0100
0000
0100
0000
,
1000
0000
1000
0000
,
0010
0000
0010
0000
,
0001
0000
0001
0000
,
0010
0000
0010
0000
,
0001
0001
0000
0000
,
0010
0000
0100
0000
,
1000
1000
0000
0000
,
0010
0000
0100
0000
,
0010
0010
0000
0000
,
0010
0000
1000
0000
,
0100
0100
0000
0000
,
0100
0000
0001
0000
,
0010
0000
0010
0000
,
0100
0000
0100
0000
,
0010
0000
0010
0000
,
0000
1001
0000
0000
,
0000
0001
0000
0001
,
0000
1000
0000
1000
,
0000
0010
0000
0010
,
0000
0100
0000
0100
,
0000
1000
0000
0100
,
0000
0001
0000
0100
,
0000
1000
0000
0100
,
0000
0001
0000
0000
,
2000
0000
0000
3000
,
0000
0000
0001
0001
,
0002
0000
0000
0003
,
0000
0000
1000
1000
;

//---------------dance-single - ----------------
#NOTES:
     dance-single:
     :
     Easy:
     4:
     :
0000
0000
0000
0000
,
0000
0000
0000
0000
,
0000
0000
0000
0000
,
0000
0000
0000
0000
,
0000
0000
0000
0000
,
1000
0100
0010
0100
,
0001
0100
0010
0100
,
1000
0010
0100
0010
,
0001
0010
0100
0010
,
0001
0100
0001
0001
,
0100
0001
0100
0100
,
1000
0100
1000
1000
,
0100
1000
0100
0100
,
1000
0010
1000
1000
,
0010
1000
0010
0010
,
0001
0010
0001
0001
,
0010
0001
0010
0010
,
0001
0001
0010
1000
,
0010
0100
0010
0100
,
1000
1000
0010
0001
,
0010
0100
0010
0100
,
0010
0010
0100
0001
,
0010
1000
0010
1000
,
0100
0100
0010
1000
,
0100
0001
0100
0001
,
0010
0001
0010
0001
,
0100
1000
0100
1000
,
0010
1000
0010
1000
,
0000
1001
0000
0100
,
0000
0001
0000
0001
,
0000
1000
0000
1000
,
0000
0110
0000
0110
,
0000
1001
0000
1001
,
0001
0000
1000
0000
0001
1000
0001
0000
,
1000
0000
0001
0000
1000
0001
1000
0000
,
0001
0000
1000
0000
0001
1000
0001
0000
,
1000
0000
0001
0000
1000
0001
1000
0000
,
0002
0000
1003
0200
,
0000
0300
0020
0000
,
2030
0000
3001
0001
,
0020
0030
0200
0000
,
0300
0000
0000
0000
;

//---------------dance-single - ----------------
#NOTES:
     dance-single:
     :
     Medium:
     6:
     :
0000
0000
0000
0000
,
0000
0000
0000
0000
,
0000
0000
0000
0000
,
0000
0000
0000
0000
,
0000
0000
0000
0000
,
1000
0000
0010
0001
1000
0000
0010
0000
,
0001
0000
0010
1000
0001
0000
0010
0000
,
1000
0000
0100
0001
1000
0000
0100
0000
,
0001
0000
0100
1000
0001
0000
0100
0000
,
0001
1000
0010
0100
0001
0001
0001
0100
,
0010
1000
0001
0100
0010
0010
0010
0000
,
1000
0001
0010
0100
1000
1000
1000
0100
,
0010
0001
1000
0100
0010
0010
0010
0000
,
1000
1000
0010
0010
0001
0010
0100
0010
,
0001
0001
0100
0100
1000
0100
0010
0000
,
0001
1000
0100
0010
0001
0001
0001
0010
,
0100
1000
0001
0010
0100
0100
0100
0000
,
0001
0010
0001
0010
0100
1000
1000
0000
,
0100
0010
0100
0010
,
1000
0010
1000
0010
0100
0001
0001
0000
,
0100
0010
0100
0010
,
0100
1000
0100
1000
0010
0100
0001
0000
,
0100
1000
0100
1000
,
0010
0001
0010
0001
0100
0010
1000
0000
,
0010
0001
0010
0001
,
0100
0000
1000
0001
0100
0000
0001
0000
,
0010
0000
0001
1000
0010
0000
1000
0000
,
0100
0000
0001
1000
0100
0000
1000
0000
,
0000
1001
1000
0010
,
0000
0001
0000
0001
,
0000
1000
0000
1000
,
0000
0011
0000
0011
,
0000
1010
0000
1010
,
0001
0010
1000
0001
0000
0100
0001
0000
,
1000
0010
0001
1000
0000
0100
1000
0000
,
0001
0100
1000
0001
0000
0010
0001
0000
,
1000
0100
0001
1000
0000
0010
1000
0000
,
0002
0000
0000
0013
1000
0001
1000
0020
,
0000
0000
0000
0130
1000
0200
0020
0300
,
2030
0000
0000
0100
3001
1000
0001
0200
,
0000
0000
0300
0010
0001
0002
0020
0003
,
0030
0000
0000
0000
;

//---------------dance-single - ----------------
#NOTES:
     dance-single:
     :
     Hard:
     8:
     :
0000
0000
0000
0000
,
0000
0000
0000
0000
,
0000
0000
0000
0000
,
0000
0000
0000
0000
,
0000
0000
0000
0000
,
0001
0000
0000
1000
0100
0000
1000
0000
0001
0000
0000
1000
0100
0000
0000
0000
,
1000
0000
0000
0001
0100
0000
0001
0000
1000
0000
0000
0001
0100
0000
0000
0000
,
0001
0000
0000
0010
0100
0000
1000
0000
0001
0000
0000
0010
0100
0000
0000
0000
,
1000
0000
0000
0010
0100
0000
0001
0000
1000
0000
0000
0010
0100
0000
0000
0000
,
1000
0000
0001
0000
0100
0000
0010
0000
1000
0100
1000
0100
1000
0000
0010
0000
,
0100
0000
0001
0000
1000
0000
0010
0000
0100
0001
0100
0001
0100
0000
0000
0000
,
0001
0000
1000
0000
0100
0000
0010
0000
0001
0100
0001
0100
0001
0000
0010
0000
,
0100
0000
1000
0000
0001
0000
0010
0000
0100
1000
0100
1000
0100
0000
0000
0000
,
1000
0100
0010
0000
0001
0000
1000
0000
0010
1000
0001
0000
1000
0000
0100
0000
,
0010
0001
1000
0000
0010
0000
0100
0000
0001
0010
0100
0000
1000
0000
0000
0000
,
1000
0000
0001
0000
0010
0000
0100
0000
1000
0010
1000
0010
1000
0000
0100
0000
,
0010
0000
0001
0000
1000
0000
0100
0000
0010
0001
0010
0001
0010
0000
0000
0000
,
1000
0001
1000
0001
1000
0100
1000
0100
0010
0000
0001
0000
0001
0000
0000
0000
,
0010
0000
0000
1000
0100
0000
0001
0000
0010
0000
0000
1000
0100
0000
0000
0000
,
0001
1000
0001
1000
0001
0100
0001
0100
0010
0000
1000
0000
1000
0000
0000
0000
,
0010
0000
0000
0001
0100
0000
1000
0000
0010
0000
0000
0001
0100
0000
0000
0000
,
0010
0100
0010
0100
0001
1000
0001
1000
0100
0000
0010
0000
1000
0000
0000
0000
,
0010
0000
0000
0100
0001
0000
1000
0000
0010
0000
0000
0100
0001
0000
0000
0000
,
0100
0010
0100
0010
1000
0001
1000
0001
0010
0000
0100
0000
0001
0000
0000
0000
,
0100
0000
0000
0010
1000
0000
0001
0000
0100
0000
0000
0010
1000
0000
0000
0000
,
0010
0000
0001
0100
0001
0000
1000
0010
1000
0000
0100
1000
0100
0000
0000
0000
,
0100
0000
0000
0010
1000
0000
0001
0000
0100
0000
0000
0010
0001
0000
0000
0000
,
0100
0000
1000
0010
1000
0000
0001
0100
0001
0000
0010
0001
0010
0000
0000
0000
,
0000
0000
0000
0000
1001
0000
0000
0000
0001
0000
0000
0010
0100
0000
0000
0000
,
1000
1100
0001
1100
,
0100
0101
0010
0101
,
1000
0100
1100
0000
0001
0100
1100
0000
,
0100
0010
0101
0000
0010
0100
0101
0000
,
1000
0001
0100
0000
0001
0000
1000
0100
0000
0001
0010
0000
1000
0000
1000
0000
,
0001
1000
0100
0000
1000
0000
0001
0100
0000
1000
0010
0000
0001
0000
0001
0000
,
1000
0001
0010
0000
0001
0000
1000
0010
0000
0001
0100
0000
1000
0000
1000
0000
,
0001
1000
0010
0000
1000
0000
0001
0010
0000
1000
0100
0000
0001
0000
0001
0000
,
2000
0000
0100
0000
0000
0000
3100
0010
0001
0000
1000
0000
0001
0000
0210
0000
,
0000
0000
0000
0000
0000
0000
0310
1000
0001
1000
0020
0000
0200
0000
0030
0000
,
0302
0000
0010
0000
0000
0000
0013
0100
1000
0000
0001
0000
1000
0000
0020
0000
,
0000
0000
0000
0000
0000
0000
0130
0001
1000
0001
2000
0000
0200
0000
3000
0000
,
0300
0000
0000
0000
;
