#TITLE:Everybody Dance;
#ARTIST:TSMV;
#BANNER:Everybody Dance.png;
#BACKGROUND:Everybody Dance-bg.png;
#CDTITLE:./CDTITLES/DanceDanceRevolution HOTTEST PARTY 2.png;
#MUSIC:Everybody Dance.ogg;
#SAMPLESTART:9.416;
#SAMPLELENGTH:15;
#BPMS:0=127;

//---------------dance-single - ----------------
#NOTES:
     dance-single:
     :
     Beginner:
     1:
     :
0000
0000
0000
0000
,
0000
0000
0000
0000
,
0000
0000
0000
0000
,
0000
0100
0000
0000
,
0000
0100
0000
0000
,
0000
0001
0000
0000
,
0000
1000
0000
0000
,
0000
0010
0000
1001
,
0000
0000
0000
0000
,
0000
1000
0000
0000
,
0000
0001
0000
0000
,
0010
0010
0010
0000
,
0100
0100
0100
0000
,
0000
0001
0000
0000
,
0000
1000
0000
0000
,
0001
1000
0001
0000
,
1000
0001
1000
0000
,
0000
0001
0000
0000
,
0000
1000
0000
0000
,
1000
0001
1000
0000
,
0001
1000
0001
0000
,
0100
0100
0100
0000
,
0010
0010
0010
0000
,
0000
1001
0000
0000
,
0000
1001
0000
0000
,
0000
1000
0000
0000
,
0000
0001
0000
0000
,
0000
0010
0000
1001
,
0000
0000
0000
0001
,
0000
0001
0000
0000
,
0000
1000
0000
0000
,
0000
0100
0000
1001
,
0000
0000
0000
0001
,
0000
1000
0000
0000
,
0000
0001
0000
0000
,
0001
1000
0001
0000
,
1000
0001
1000
0000
,
0010
0010
0010
0000
,
0100
0100
0100
0000
,
1000
0000
0001
0000
,
1000
1000
0001
0001
,
0000
1000
0000
0000
,
0000
1000
0000
0000
,
0000
0100
0000
1001
,
0000
0000
0000
1000
,
0000
0001
0000
0000
,
0000
0001
0000
0000
,
0000
0010
0000
1001
,
0000
0000
0000
1000
,
1000
0000
0000
0000
;

//---------------dance-single - ----------------
#NOTES:
     dance-single:
     :
     Easy:
     2:
     :
0000
0000
0000
0000
,
0000
0000
0000
0000
,
0000
0000
0000
0000
,
0000
0100
0000
0000
,
0000
0010
0000
0000
,
0000
1000
0000
0001
,
0000
1000
0000
0010
,
0000
0010
0000
1001
,
0000
0000
0000
0100
,
0000
1000
0000
0000
,
0000
0001
0000
0000
,
0000
0010
0000
0000
,
0000
1000
1000
0000
,
0010
0001
0010
0000
,
0100
1000
0100
0000
,
0001
0100
0100
0000
,
1000
0100
0100
0000
,
0100
0001
0100
0000
,
0010
1000
0010
0000
,
0001
0010
0010
0000
,
1000
0010
0010
0000
,
0000
0001
0001
0000
,
0000
1000
1000
0000
,
0100
0000
0010
0000
,
1000
0000
0001
0000
,
0000
0001
0000
1000
,
0000
0001
0000
0010
,
0000
0010
0000
1001
,
0000
0000
0000
0100
,
0000
1000
0000
0001
,
0000
1000
0000
0100
,
0000
0100
0000
1001
,
0000
0000
0000
0010
,
0100
1000
0100
0000
,
0010
0001
0010
0000
,
1000
0100
0100
0000
,
0001
0010
0010
0000
,
0000
0001
0001
0000
,
0000
1000
1000
0000
,
0110
0000
1001
0000
,
1000
1000
0001
0001
,
0000
0001
0000
1000
,
0000
0001
0000
0010
,
0000
0010
0000
1001
,
0000
0000
0000
0100
,
0000
1000
0000
0001
,
0000
1000
0000
0100
,
0000
0100
0000
1001
,
0000
0000
0000
0010
,
0010
0000
0000
0000
;

//---------------dance-single - ----------------
#NOTES:
     dance-single:
     :
     Medium:
     5:
     :
0000
0000
0000
0000
,
0000
0000
0000
0000
,
0000
0000
0000
0000
,
0000
0010
0000
0001
,
0000
0100
0000
1000
,
0100
1001
0010
1001
,
1000
0110
0001
0110
,
0001
0000
0100
0000
1000
0010
0001
0000
,
1000
0000
0010
0000
0001
0010
1000
0000
,
0001
1000
0010
0100
,
0001
0010
1000
0000
1000
0010
0100
0000
,
0002
0000
0203
0000
,
0310
0000
1000
0000
0001
0010
0110
0000
,
1000
0001
0010
0100
,
1000
0010
0001
0000
0001
0010
0100
0000
,
2000
0000
3200
0000
,
0310
0000
0001
0000
1000
0010
0110
0000
,
0100
0010
0001
1000
,
0010
0100
1000
0000
0001
0010
1000
0000
,
0010
0100
1000
0001
,
0100
0010
0001
0000
1000
0100
0001
0000
,
1000
0100
0010
1000
,
0001
0010
0100
0000
,
0120
0030
0210
0310
,
1002
0003
2001
3001
,
0100
1001
0010
1001
,
0001
0110
1000
0110
,
1000
0000
0100
0000
0001
0010
1000
0000
,
0001
0000
0010
0000
1000
0010
0001
0000
,
0010
1001
0100
1001
,
0001
0110
1000
0110
,
1000
0000
0010
0000
0001
0100
1000
0000
,
0001
0000
0100
0000
1000
0100
0001
0000
,
0010
0100
1000
0001
,
0100
0010
0001
0000
1000
0100
0001
0000
,
0100
0010
0001
1000
,
0010
0100
1000
0000
0001
0010
1000
0000
,
1000
0100
0010
1000
,
0001
0010
0100
0000
,
0110
0000
0001
1000
,
0100
0010
1001
0110
,
0010
1001
0100
1001
,
1000
0110
0001
0110
,
0001
0000
0010
0000
1000
0100
0001
0000
,
1000
0000
0100
0000
0001
0010
1000
0000
,
0010
1001
0100
1001
,
1000
0110
0001
0110
,
0001
0000
0010
0000
1000
0100
0001
0000
,
1000
0000
0100
0000
0001
0010
1000
0001
,
0100
0000
0000
0000
;

//---------------dance-single - ----------------
#NOTES:
     dance-single:
     :
     Hard:
     7:
     :
0000
0000
0000
0000
,
0000
0000
0000
0000
,
0000
0000
0000
0000
,
0000
1000
0000
1000
,
0000
0001
0000
0001
,
0001
0001
1100
0000
1000
1000
0011
0000
,
0001
1000
0110
0000
1000
0001
0110
0000
,
1000
0000
0010
0001
0000
0110
1001
0000
,
0001
0001
0100
0000
1000
1000
0010
0000
,
0001
0010
0001
1000
0010
0100
0010
1000
,
0001
0001
0100
0000
0100
0000
0100
0000
,
1100
0000
0100
0010
0110
0000
0010
0001
,
0011
0000
0001
0010
0100
0000
1001
0000
,
1000
0010
1000
0001
0010
0100
0010
0001
,
1000
1000
0100
0000
0100
0000
0100
0000
,
0101
0000
0100
0010
0110
0000
0010
1000
,
1010
0000
1000
0010
0100
0000
1001
0000
,
0000
0010
0001
0100
0000
0100
0001
0010
,
1000
0010
0110
0000
0001
0100
0110
0000
,
1000
0000
1000
0000
0001
0010
1000
0001
,
0100
0010
1000
1001
,
0000
0100
0001
0010
0000
0010
0001
0100
,
1000
0100
0110
0000
0001
0010
0110
0000
,
1000
0000
0010
0000
0001
0100
0101
0000
,
0001
0000
0100
0000
1000
0010
1010
0000
,
1000
1000
0101
0000
0001
0001
1010
0000
,
1000
0001
0110
0000
0001
1000
0110
0000
,
0001
0000
0010
1000
0000
0110
1001
0000
,
1000
1000
0100
0000
0001
0001
0010
0000
,
1000
1000
0101
0000
0001
0001
1010
0000
,
1000
0001
0110
0000
0001
1000
0110
0000
,
0001
0000
0010
1000
0000
0110
1001
0000
,
1000
1000
0100
0000
0001
0001
0010
0000
,
0000
0010
0001
0100
0000
0100
0001
0010
,
1000
0010
0110
0000
0001
0100
0110
0000
,
1000
0000
1000
0000
0001
0010
1000
0001
,
0100
0010
1000
1001
,
1000
0100
1000
0001
0100
0010
0100
0001
,
1000
1000
0010
0000
0010
0000
0010
0000
,
0011
0000
0010
0100
0110
0000
0100
1000
,
1100
0000
1000
0100
0010
0000
1001
0000
,
0001
0001
1010
0000
1000
1000
0101
0000
,
0001
1000
0110
0000
1000
0001
0110
0000
,
1000
0000
0100
0001
0000
0110
1001
0000
,
0001
0001
0010
0000
1000
1000
0100
0000
,
0001
0001
1010
0000
1000
1000
0101
0000
,
0001
1000
0110
0000
1000
0001
0110
0000
,
1000
0000
0100
0001
0000
0110
1001
0000
,
0001
0010
0010
0000
1000
1000
0100
0100
,
0001
0000
0000
0000
;
