#TITLE:Don't You (Forget About Me);
#ARTIST:NuFoundation;
#BANNER:Don't You (Forget About Me).png;
#BACKGROUND:Don't You (Forget About Me)-bg.png;
#CDTITLE:./CDTITLES/DanceDanceRevolution HOTTEST PARTY 2.png;
#MUSIC:Don't You (Forget About Me).ogg;
#SAMPLESTART:40.501;
#SAMPLELENGTH:15;
#BPMS:0=148;

//---------------dance-single - ----------------
#NOTES:
     dance-single:
     :
     Beginner:
     2:
     :
0000
0000
0000
0000
,
0000
0000
0000
0000
,
0000
0000
0000
0000
,
0000
0000
0000
0000
,
0000
0000
0000
0000
,
0110
0000
0000
0000
,
0110
0000
0000
0000
,
1001
0000
1001
0000
,
0110
0000
1001
0000
,
0000
0000
1000
1000
,
0000
0000
0001
0001
,
0000
0000
0100
0100
,
0000
0000
0010
0010
,
0000
0000
0001
0001
,
0000
0000
1000
1000
,
0000
0000
0010
0010
,
0000
0000
0100
0100
,
0000
1000
0001
0000
,
0010
0010
0000
0000
,
0100
0100
0000
0000
,
0001
1000
0000
0000
,
0000
1000
0001
0000
,
0100
0100
0000
0000
,
0010
0010
0000
0000
,
0001
1000
0000
0000
,
0000
0000
0020
0000
,
0030
0000
0000
0000
,
0002
0000
0003
0000
,
0100
0100
0100
0100
,
0000
0000
0200
0000
,
0300
0000
0000
0000
,
2000
0000
3000
0000
,
0001
0001
1000
1000
,
0002
0000
0003
0000
,
2000
0000
3000
0000
,
0020
0000
0030
0000
,
0200
0000
0300
0000
,
0000
0010
0010
0000
,
0000
0010
0010
0000
,
0100
0000
0100
0000
,
0100
0000
0000
0000
,
2000
0000
3000
0000
,
0002
0000
0003
0000
,
0020
0000
0030
0000
,
0200
0000
0300
0000
,
0000
0010
0010
0000
,
0000
0010
0010
0000
,
0100
0000
0100
0000
,
0100
0000
0100
0000
,
0000
1000
1000
0000
,
0001
0001
0001
0001
,
0000
1000
0001
0000
,
0000
0001
1000
0000
,
0110
0000
0000
0000
,
0110
0000
0000
0000
,
1001
0000
1001
0000
,
1001
0000
0110
0000
,
1001
0000
0000
0000
;

//---------------dance-single - ----------------
#NOTES:
     dance-single:
     :
     Easy:
     4:
     :
0000
0000
0000
0000
,
0000
0000
0000
0000
,
0000
0000
0000
0000
,
0000
0000
0000
0000
,
0000
0000
0000
0000
,
0110
0000
0000
0000
,
0110
0000
0000
0000
,
1001
0000
1001
0000
,
1001
0001
1001
1000
,
0000
1000
0100
1000
,
0000
0001
0100
0001
,
0000
1000
1000
0100
,
0000
0001
0001
0100
,
0000
0001
0010
0001
,
0000
1000
0010
1000
,
0000
0001
0001
0010
,
0000
1000
1000
0010
,
0000
1000
0001
0000
,
0001
0010
0001
0000
,
0001
0100
0001
0000
,
0001
1000
0001
0000
,
0000
0001
1000
0000
,
1000
0100
1000
0000
,
1000
0010
1000
0000
,
1000
0001
1000
0000
,
0000
1000
0002
0000
,
0003
0000
0001
0001
,
0200
0000
0300
0000
,
0100
0100
0100
0100
,
0000
0001
2000
0000
,
3000
0000
1000
1000
,
0020
0000
0030
0000
,
1000
0001
1000
0001
,
2000
0000
3000
0000
,
0200
0000
0300
0000
,
0020
0000
0031
0000
,
0200
0000
1300
0000
,
0000
0020
1000
1030
,
0000
0020
1000
1030
,
0000
0100
0000
0000
0000
0100
0000
0000
,
0000
0100
0000
0000
0000
0000
0000
0000
,
0002
0000
0003
0000
,
0200
0000
0300
0000
,
0020
0000
1030
0000
,
0200
0000
0301
0000
,
0000
0020
0001
0031
,
0000
0020
0001
0031
,
0000
0100
0000
0000
0000
0100
0000
0000
,
0000
0100
0000
0000
0000
0000
0000
0000
,
0100
0010
0100
0000
,
0010
0010
0010
0110
,
0000
1000
0001
0000
,
0000
0001
1000
0000
,
0110
0000
0000
0000
,
0110
0000
0000
0000
,
1001
0000
1001
0000
,
1001
1000
1001
0001
,
1001
0000
0000
0000
;

//---------------dance-single - ----------------
#NOTES:
     dance-single:
     :
     Medium:
     6:
     :
0000
0000
0000
0000
,
0000
0000
0000
0000
,
0000
0000
0000
0000
,
0000
0000
0000
0000
,
0000
0000
0000
0000
,
0110
1000
0001
0001
,
0110
0001
1000
1000
,
0101
0100
1010
0010
,
0101
1010
1010
0101
,
0000
0010
0100
0010
,
0100
0001
1000
0100
,
0010
0001
0010
0000
0010
0000
0100
0000
,
0010
1000
0010
0000
0010
0000
1000
0000
,
0000
0010
0100
0010
,
0100
1000
0001
0100
,
0010
1000
0010
0000
0010
0000
0100
0000
,
0010
0001
0010
0000
0010
0000
0101
0000
,
0000
0000
1000
0000
0001
0000
0100
0010
,
0100
0000
0010
0000
0001
0000
0100
0010
,
1000
0000
0010
0000
1000
0000
0100
0001
,
0010
0100
1000
0011
,
0000
0000
0001
0000
1000
0000
0010
0100
,
0010
0000
0100
0000
1000
0000
0010
0100
,
0001
0000
0100
0000
0001
0000
0010
1000
,
0100
0000
0010
0000
0001
0100
0010
0100
,
0001
1000
0210
0000
,
0310
0000
1000
0001
0010
0001
0010
0001
,
0200
0000
0300
0000
,
1010
1010
1010
1010
,
0001
1000
0120
0000
,
0130
0000
1000
0001
0100
0001
0100
0001
,
0020
0000
0030
0000
,
0001
0000
1000
0000
0001
1000
0100
0010
,
0002
0100
0103
0100
,
0010
0000
1000
0000
0001
0010
0100
0000
,
0001
0020
0100
0130
,
0001
0200
1000
1300
,
0010
2000
0010
3010
,
0100
2000
0100
3100
,
0000
0100
0000
0000
0000
0100
0000
0000
,
0000
0100
0000
0000
0000
0000
0000
0000
,
0002
0010
0013
0010
,
0100
0000
0001
0000
1000
0100
0010
0000
,
0001
0200
0010
0310
,
0001
0020
1000
1030
,
0100
2000
0100
3100
,
0010
2000
0010
3010
,
0000
0100
0000
0000
0000
0100
0000
0000
,
0000
0100
0000
0000
0000
0000
0000
0000
,
0001
0010
1000
0100
,
0010
0010
0010
0011
,
1000
0010
0001
0100
,
0001
1000
0001
0100
,
0110
1000
0001
0001
,
0110
0001
1000
1000
,
0101
0100
1010
0010
,
0101
0010
0001
0110
,
1001
0000
0000
0000
;

//---------------dance-single - ----------------
#NOTES:
     dance-single:
     :
     Hard:
     7:
     :
0000
0000
0000
0000
,
0000
0000
0000
0000
,
0000
0000
0000
0000
,
0000
0000
0000
0000
,
0000
0000
0000
0000
,
0010
0000
1000
0000
0001
0100
0001
0000
,
0100
0000
0001
0000
1000
0010
1000
0000
,
0001
0010
0100
0000
1000
0100
0010
0000
,
0001
0100
0010
1000
0001
0010
0100
0000
,
0001
0000
0010
1000
0100
1000
0010
0000
,
0100
0010
0001
0000
1000
0000
0100
0000
,
0010
0001
1000
0000
0010
0000
0100
0000
,
0010
1000
0001
0000
0010
0000
1100
0000
,
1000
0000
0010
0001
0100
0001
0010
0000
,
0100
0010
1000
0000
0001
0000
0100
0000
,
0010
1000
0001
0000
0010
0000
0100
0000
,
0010
0001
1000
0000
0010
0000
0101
0000
,
0010
0000
2000
0000
0001
0000
3010
0100
,
0020
0000
0130
0000
0001
0000
0010
0100
,
2000
0000
3100
0000
1000
0000
0010
0001
,
0200
0310
1000
0101
,
0100
0000
0002
0000
1000
0000
0103
0010
,
0200
0000
0310
0000
1000
0000
0100
0010
,
0002
0000
0013
0000
0001
0000
0100
1000
,
0020
0000
0130
0000
0001
0010
0100
0010
,
0001
0000
1000
0000
0010
1000
0100
0010
,
0001
0000
0001
1000
0100
1000
0010
1000
,
0200
0000
0300
0000
,
1010
1010
1010
1010
,
0001
0000
1000
0000
0100
1000
0100
0010
,
0001
0000
0001
1000
0100
1000
0010
1000
,
0200
0000
0300
0000
,
0001
0100
1000
0100
0001
1000
0100
0010
,
0002
0000
0100
0000
0103
0001
1000
0000
,
0020
0000
0130
0000
0100
0001
1000
0000
,
0001
0100
0000
0100
0020
0000
0130
0000
,
0001
0010
0000
0010
1000
0010
0001
0000
,
0010
1000
2000
0000
0010
0000
3010
0000
,
0100
1000
2000
0000
0100
0000
3100
0000
,
0000
0002
0000
0000
0000
0020
0003
0000
,
0000
0200
0030
0000
0000
0000
0300
0000
,
2000
0000
0100
0000
3100
1000
0001
0000
,
0020
0000
0130
0000
0010
1000
0001
0000
,
1000
0100
0000
0100
0020
0000
0130
0000
,
1000
0010
0000
0010
0001
0010
1000
0000
,
0010
0001
0002
0000
0010
0000
0013
0000
,
0100
0001
0002
0000
0100
0000
0103
0000
,
0000
2000
0000
0000
0000
0020
3000
0000
,
0000
2000
0030
0000
0000
0200
3000
0000
,
0301
0000
0010
0000
1000
0100
0010
0100
,
0001
0001
0001
0011
,
1000
0000
0010
0000
0001
0100
0010
0100
,
0001
0000
0100
0000
1000
0000
0100
0010
,
0100
0000
1000
0000
0001
0010
0001
0000
,
0010
0000
0001
0000
1000
0100
1000
0000
,
0001
0100
1000
0001
1000
0010
0001
1000
,
0001
0010
0100
1000
0001
0100
0010
0000
,
0100
0000
0000
0000
;
