#TITLE:D.A.N.C.E.;
#ARTIST:Justice;
#BANNER:D.A.N.C.E..png;
#BACKGROUND:D.A.N.C.E.-bg.png;
#CDTITLE:./CDTITLES/DanceDanceRevolution HOTTEST PARTY 2.png;
#MUSIC:D.A.N.C.E..ogg;
#SAMPLESTART:6.337;
#SAMPLELENGTH:15;
#BPMS:0=113;

//---------------dance-single - Blank----------------
#NOTES:
     dance-single:
     Blank:
     Beginner:
     1:
     :
0000
0000
0000
0000
,
0000
0000
0000
0000
,
0000
0000
0000
0000
,
1000
0000
1000
0000
,
0100
0000
0100
0000
,
0010
0000
0010
0000
,
0001
0000
0000
0000
,
1001
0000
0000
0000
,
0100
0000
1000
0000
,
0010
0000
0000
0000
,
0010
0000
1000
0000
,
1001
0000
0000
0000
,
0100
0000
1000
0000
,
0010
0000
0000
0000
,
0010
0000
1000
0000
,
1001
0000
0000
0000
,
0010
0000
0001
0000
,
0100
0000
0000
0000
,
0100
0000
0001
0000
,
1001
0000
0000
0000
,
0010
0000
0001
0000
,
0100
0000
0000
0000
,
0100
0000
0000
0000
,
1001
0000
0000
0100
,
0000
1000
0000
0000
,
1000
0000
0001
0000
,
0010
0000
0000
0000
,
1000
0000
0001
0000
,
0010
0000
0000
0000
,
1000
0000
0000
0100
,
0000
0000
0000
0000
,
1000
0000
0000
0000
,
0100
0000
0000
0000
,
0010
0000
0000
0000
,
0001
0000
0000
0000
,
0001
0000
0001
0000
,
0010
0000
0010
0000
,
0100
0000
0100
0000
,
1000
0000
1000
0000
,
0000
0000
1000
1000
,
0000
0000
0001
0001
,
0000
0000
0010
0010
,
0000
0000
0000
1001
,
0000
0000
0001
0001
,
0000
0000
1000
1000
,
0000
0000
0100
0100
,
0000
0000
0000
0000
,
2000
0000
0000
0000
,
3000
0000
0000
0000
;

//---------------dance-single - Blank----------------
#NOTES:
     dance-single:
     Blank:
     Easy:
     2:
     :
0000
0000
0000
0000
,
0000
0000
0000
0000
,
0000
0000
0000
0000
,
1000
0000
0001
0000
,
0010
0000
1000
0000
,
0100
0000
0010
0000
,
0001
0000
0000
0000
,
0110
0000
0000
1000
,
0100
0000
0001
0000
,
0010
0000
0100
0000
,
0010
0000
0001
0000
,
1001
0000
0000
1000
,
0010
0000
0001
0000
,
0010
0000
0100
0000
,
0100
0000
0001
0000
,
0110
0000
0000
0001
,
0010
0000
1000
0000
,
0100
0000
0010
0000
,
0100
0000
1000
0000
,
1001
0000
0000
0001
,
0100
0000
1000
0000
,
0100
0000
0010
0000
,
0010
0000
1000
0000
,
1001
0000
0000
0010
,
0001
0000
1000
0000
,
1001
0000
1000
0010
,
0100
0000
0001
0000
,
1001
0000
1000
0000
,
0100
0000
0010
0000
,
1001
0000
1000
0010
,
0000
0000
0000
0000
,
0001
0000
0000
1000
,
0010
0000
0001
0000
,
0100
0000
0000
0000
,
1000
0000
0001
0000
,
0100
0000
0000
0001
,
0100
0000
1000
0000
,
0010
0000
0000
0000
,
0001
0000
1000
0000
,
0010
0000
0001
0001
,
0100
0000
1000
1000
,
0001
0000
0100
0100
,
0000
0000
0000
1001
,
0000
0000
1000
1000
,
0010
0000
0001
0001
,
1000
0000
0010
0010
,
0000
0000
0000
0000
,
0002
0000
0000
0000
,
0003
0000
0000
0000
;

//---------------dance-single - Blank----------------
#NOTES:
     dance-single:
     Blank:
     Medium:
     5:
     :
0000
0000
0000
0000
,
0000
0000
0000
0000
,
0000
0000
0000
0000
,
1000
0000
0000
0000
0001
0010
0001
0000
,
0100
0000
0000
0000
0001
1000
0001
0000
,
0001
0000
0000
0000
0010
1000
0010
0000
,
0100
0000
0000
0000
,
1010
0000
0000
0000
0010
0000
0001
0010
,
0100
0000
0000
0000
1000
0000
0010
0001
,
0100
0000
0000
0000
0010
0000
0100
0010
,
0100
0000
1000
0100
,
1010
0000
0001
0000
0100
0000
0001
0010
,
0100
0000
0001
0000
1000
0000
0010
0001
,
0100
0000
1000
0000
0010
0000
0100
0010
,
0100
0001
1000
0010
,
0011
0000
0100
0000
0010
0000
1000
0010
,
0100
0000
0110
0000
0001
0000
0010
1000
,
0100
0000
0101
0000
0010
0000
0100
0010
,
0100
1100
0001
0100
,
0011
0000
1000
0000
0100
0000
1000
0010
,
0100
0000
1000
0000
0001
0000
0010
1000
,
0100
0000
0001
0000
0010
0000
0100
0010
,
0100
1000
0001
0010
,
1100
0000
0000
0000
0000
0000
0010
0100
,
0001
0000
1000
0010
,
0101
0000
0000
0000
1000
0010
0100
0000
,
0010
0010
1000
0100
,
0101
0000
0000
0000
1000
0010
0100
0000
,
0001
1000
0010
0100
,
0101
0000
0000
0000
1000
0010
0100
0000
,
0000
0000
0000
0000
,
0011
0000
0100
1000
,
0010
0000
0001
0000
,
1100
0000
0010
0000
,
1000
0001
0100
0001
1000
0010
0100
0000
,
1100
0000
0010
0001
,
0100
0000
1000
0000
,
0011
0000
0100
0000
,
0001
1000
0010
1000
0001
0100
0010
0000
,
1000
0000
0010
0000
0100
0001
0010
0001
,
0100
0000
0001
0000
1000
0010
0100
0000
,
0010
1000
0100
0010
0001
0100
0010
0000
,
1000
0100
1000
0011
,
0001
0000
0100
0000
0010
1000
0100
1000
,
0010
0000
1000
0000
0001
0100
0010
0000
,
0100
0001
0010
0100
1000
0010
0100
0000
,
0001
0010
0001
1100
,
1001
0000
0000
0000
;

//---------------dance-single - Blank----------------
#NOTES:
     dance-single:
     Blank:
     Hard:
     6:
     :
0000
0000
0000
0000
,
0000
0000
0000
0000
,
0000
0000
0000
0000
,
1000
0000
0000
0000
0100
0000
0000
0000
0001
0000
0000
0010
1000
0000
0010
0000
,
0001
0000
0000
0000
0010
0000
0000
0000
1000
0000
0000
0100
0001
0000
0100
0000
,
1000
0000
0000
0000
0001
0000
0000
0000
0010
0000
0000
0100
0010
0000
0100
0000
,
1000
0010
0101
0000
,
1000
0000
0100
0000
0001
0001
0100
0100
,
0010
0000
0001
0000
1000
1000
0100
0100
,
0010
0000
1000
0000
0001
0001
0100
0100
,
0010
0000
0100
0000
1000
0100
0010
0100
,
1001
0000
0010
0000
0001
0000
0100
1000
,
1100
0000
0001
0000
1000
0000
0010
0001
,
0101
0000
1000
0000
0001
0000
0100
1000
,
1010
0000
0100
0000
0001
0010
0100
0010
,
1000
1000
1100
0000
0001
0001
0100
0100
,
0010
0010
0011
0000
1000
1000
0100
0100
,
0010
0010
1010
0000
0001
0001
0100
0100
,
0010
0010
0110
0000
1000
0100
0010
0100
,
0001
0000
0010
0000
0001
0000
0100
1000
,
0100
0000
0001
0000
1000
0000
0010
0001
,
0100
0000
1000
0000
0001
0000
0100
1000
,
0100
0000
0010
0000
0001
0010
0100
0010
,
0001
0100
0010
0100
1000
0000
0110
0000
,
0001
0010
0100
0010
1000
0000
1001
0000
,
1000
0010
0100
0010
0001
0000
0110
0000
,
0200
0000
0020
0330
,
1001
0000
0000
0000
0101
1010
1001
0000
,
0110
0000
0000
0000
1010
0101
0110
0000
,
1001
0000
0000
0000
1100
0011
1001
0000
,
0101
0000
0000
0000
,
1000
0000
0010
0000
0000
0010
0000
0000
0100
0000
0000
0100
0000
0000
0110
0000
,
0000
0000
0100
0000
0000
1001
0000
0000
0010
0000
0000
1001
0000
0000
1100
0000
,
0000
0000
0010
0000
0000
0010
0000
0000
0100
0000
0000
0100
0000
0000
0110
0000
,
0010
0001
1100
0000
,
0101
0000
0010
0000
1000
0100
0001
0100
,
1100
0000
0010
0000
0100
0010
0001
0010
,
0110
0000
1000
0000
0010
0001
0010
0100
,
1000
0100
0001
0010
,
1100
0000
0010
0000
0001
0100
1000
0100
,
0101
0000
0010
0000
0100
0010
1000
0010
,
0110
0000
0001
0000
0010
1000
0010
0100
,
0001
0100
1000
0010
,
0101
0000
0010
0100
1000
0100
0001
0100
,
1100
0000
0010
1000
0100
0010
0001
0010
,
0110
0000
1000
0100
0010
0001
0010
0100
,
1000
0100
1000
0000
0010
0100
0010
0000
0001
0100
0001
0000
1000
0010
0000
0000
,
1001
0000
0000
0000
;
