#TITLE:Come Rain Come Shine;
#ARTIST:Jenn Cuneta;
#BANNER:Come Rain Come Shine.png;
#BACKGROUND:Come Rain Come Shine-bg.png;
#CDTITLE:./CDTITLES/DanceDanceRevolution HOTTEST PARTY 2.png;
#MUSIC:Come Rain Come Shine.ogg;
#SAMPLESTART:46.846;
#SAMPLELENGTH:15;
#BPMS:0=128;

//---------------dance-single - ----------------
#NOTES:
     dance-single:
     :
     Beginner:
     1:
     :
0000
0000
0000
0000
,
0000
0000
0000
0000
,
0000
0000
0000
0000
,
0000
0000
0000
0000
,
0000
0000
0000
0000
,
0001
0000
0000
0000
,
0000
0000
0000
0000
,
0100
0000
0000
0000
,
0000
0000
0000
0000
,
1000
0000
0000
0000
,
0000
0000
0000
0000
,
0001
0000
0000
0000
,
0000
0000
0000
0000
,
0010
0000
0000
0000
,
0000
0000
0000
0000
,
0100
0000
0000
0000
,
0000
0000
0000
0000
,
0001
0000
0000
0000
,
0000
0000
0000
0000
,
1000
0000
0000
0000
,
0000
0000
0000
0000
,
0100
0000
0000
0000
,
0000
0000
0000
0000
,
0010
0000
0000
0000
,
0000
0000
0000
0000
,
0000
0001
0000
0000
,
0000
0010
0000
0000
,
0000
1000
0000
0000
,
0000
0100
0000
0000
,
0000
0000
0000
0000
,
0001
0000
0000
0000
,
0100
0000
0000
0000
,
0010
0000
0000
0000
,
0001
0000
0000
0000
,
0000
0000
0000
0000
,
0000
0000
0000
0000
,
0000
0000
0000
0000
,
1000
0000
0000
0000
,
0000
0000
0000
0000
,
0010
0000
0000
0000
,
0000
0000
0000
0000
,
0000
0001
0000
0000
,
0000
0010
0000
0000
,
0000
1000
0000
0000
,
0000
0100
0000
0000
,
0000
0000
0000
0000
,
0001
0000
0000
0000
,
0100
0000
0000
0000
,
0010
0000
0000
0000
,
0000
1000
0000
0000
,
0000
0100
0000
0000
,
0000
0001
0000
0000
,
0000
0010
0000
0000
,
0000
0000
0000
0000
,
1000
0000
0000
0000
,
0010
0000
0000
0000
,
0100
0000
0000
0000
;

//---------------dance-single - ----------------
#NOTES:
     dance-single:
     :
     Easy:
     3:
     :
0000
0000
0000
0000
,
0000
0000
0000
0000
,
0000
0000
0000
0000
,
0000
0000
0000
0000
,
0000
0000
0000
0000
,
0000
0000
0001
0001
,
0000
0000
1000
1000
,
0000
0000
0100
0100
,
0000
0000
0010
0010
,
0000
0100
0000
0100
,
0000
0001
0000
0001
,
0000
0010
0000
0010
,
0000
1000
0000
1000
,
0000
0000
0001
0100
,
0000
0000
0010
0100
,
0000
0000
1000
0010
,
0000
0000
0100
0010
,
0000
0010
0000
0010
,
0000
1000
0000
1000
,
0000
0100
0000
0100
,
0000
0001
0000
0001
,
0000
0000
1000
0010
,
0000
0000
0100
0010
,
0000
0000
0001
0100
,
0000
0000
0010
0100
,
0000
0010
0000
0010
,
0000
0100
0000
0100
,
2000
0000
0000
3000
,
0010
0000
0001
0000
,
0000
0010
0000
1001
,
0000
0100
0000
1001
,
0000
0000
0010
0010
,
0000
0000
0100
0100
,
2000
0000
0000
0000
,
0000
0000
0000
3000
,
0002
0000
0000
0000
,
0000
0000
0000
0003
,
0000
0000
0010
0000
,
0000
0000
1000
0000
,
0000
0000
0000
0000
,
0020
0000
0000
0030
,
0000
0010
0000
0010
,
0000
0100
0000
0100
,
2000
0000
0000
3000
,
0010
0000
0001
0000
,
0000
0010
0000
1001
,
0000
0100
0000
1001
,
0000
0000
0010
0010
,
0000
0000
0100
0100
,
0000
0100
0000
0100
,
0000
0010
0000
0010
,
0002
0000
0000
0003
,
0100
0000
1000
0000
,
0000
0100
0000
1001
,
0000
0010
0000
1001
,
0000
0000
0100
0100
,
0000
0000
0010
0010
;

//---------------dance-single - ----------------
#NOTES:
     dance-single:
     :
     Medium:
     4:
     :
0000
0000
0000
0000
,
0000
0000
0000
0000
,
0000
0000
0000
0000
,
0000
0000
0000
0000
,
0000
0000
0000
0000
,
0000
0000
0000
0000
0001
0010
0001
0000
,
0000
0000
0000
0000
1000
0100
1000
0000
,
0000
0000
0000
0000
0100
0001
0100
0000
,
0000
0000
0000
0000
0010
1000
0010
0000
,
0000
0000
0000
0000
0000
0001
0010
0000
,
0001
1000
0001
0100
,
0010
0000
0010
0000
0000
1000
0100
0000
,
1000
0001
0100
0110
,
0000
0000
0000
0000
0001
0010
0100
0000
,
1000
0001
0010
0100
,
0000
0000
0000
0000
1000
0100
0010
0000
,
0001
1000
0100
0010
,
0000
0000
0000
0000
0000
0001
0010
0000
,
0001
1000
0001
0100
,
0010
0000
0010
0000
0000
1000
0100
0000
,
1000
0001
0100
0110
,
0000
0000
0000
0000
0001
0010
0100
0000
,
1000
0001
0010
0100
,
0000
0000
0000
0000
1000
0100
0010
0000
,
0001
1000
0100
0010
,
1000
0000
0001
0010
0100
0001
0010
0000
,
0001
0010
1000
0100
,
2000
0000
0010
3001
,
0000
0010
0000
0100
0000
0001
1000
0000
,
0000
0001
1000
1001
,
0000
1000
0001
1001
,
0010
0000
0010
0000
,
0001
0000
1000
0010
0000
0100
0001
0000
,
2000
0000
0000
0000
,
0002
0000
0000
3003
,
0002
0000
0000
0000
,
2000
0000
0000
3003
,
0000
0000
0010
0001
0100
0010
1000
0000
,
0000
0000
0100
1000
0010
0100
0001
0000
,
0010
0000
0100
0000
,
0200
0000
0000
0020
0000
0000
0330
0000
,
1000
0000
0001
0010
0100
0001
0010
0000
,
0001
0010
1000
0100
,
2000
0000
0010
3001
,
0000
0010
0000
0100
0000
0001
1000
0000
,
0000
0001
1000
1001
,
0000
1000
0001
1001
,
0010
0000
0010
0000
,
0001
0000
1000
0010
0000
0100
0001
0000
,
0001
0000
1000
0100
0010
1000
0100
0000
,
1000
0100
0001
0010
,
0002
0000
0100
1003
,
0000
0100
0000
0010
0000
1000
0001
0000
,
0000
1000
0001
1001
,
0000
0001
1000
1001
,
0100
0000
0100
0000
,
1000
0000
0001
0100
0000
0010
1000
0000
;

//---------------dance-single - ----------------
#NOTES:
     dance-single:
     :
     Hard:
     6:
     :
0000
0000
0000
0000
,
0000
0000
0000
0000
,
0000
0000
0000
0000
,
0000
0000
0000
0000
,
0000
0000
0000
0000
,
1000
0000
0100
0000
0010
1000
0100
0000
,
0010
0001
0010
0000
0010
1000
0010
0001
,
0010
0001
0100
1000
,
0001
0000
0010
0100
0000
0001
0100
0000
,
0000
0000
0010
0000
0100
1000
1000
0000
,
1000
0101
0010
0100
,
0000
0000
1000
0010
0100
0001
0100
0000
,
1000
0000
0010
0000
0011
0000
0100
0100
,
1100
0000
0000
0000
1000
0100
0010
0000
,
1000
1100
0001
0021
,
0000
0000
0000
0000
0100
0100
0130
0000
,
0002
0103
0010
1010
,
0000
0000
0010
0000
0100
0001
0001
0000
,
0001
1100
0010
0100
,
0000
0000
0001
0010
0100
1000
0100
0000
,
0001
0000
0010
0000
1010
0000
0100
0100
,
0101
0000
0000
0000
0001
0100
0010
0000
,
0001
0101
1000
1020
,
0000
0000
0000
0000
0100
0100
0130
0000
,
2000
3100
1100
0011
,
0000
0000
1000
0010
0100
1000
0010
0000
,
1000
0000
0001
0010
0100
1000
0010
0000
,
2000
0000
0000
0000
0000
0001
3001
0100
,
0000
0010
0000
0100
0000
0001
0010
0001
,
1000
0010
0100
0101
,
0001
0100
0000
0100
0001
0000
1100
0000
,
0020
0000
0230
0000
,
0301
0000
1000
0100
0000
0001
0100
0000
,
2000
0000
0100
0100
,
3020
0000
0001
0001
,
2030
0000
0010
0010
,
3200
0000
0000
0300
,
0000
0000
0100
0001
0010
0100
1000
0000
,
0100
0000
0010
0001
0100
0010
1000
0000
,
0001
0010
0100
1000
0100
0010
0001
0000
,
0200
0300
1001
0000
,
0000
0000
0001
0100
0010
0001
0100
0000
,
0001
0000
1000
0100
0010
0001
0100
0000
,
0002
0000
0000
0000
0000
1000
1003
0010
,
0000
0100
0000
0010
0000
1000
0100
1000
,
0001
0100
0010
1010
,
1000
0010
0000
0010
1000
0000
0011
0000
,
0200
0000
0320
0000
,
1030
0000
0001
0010
0000
1000
0010
0000
,
0001
0001
1000
0010
0100
1000
0010
0000
,
1000
0000
0001
0010
0100
1000
0010
0000
,
2000
0000
0000
0000
0000
0001
3001
0100
,
0000
0010
0000
0100
0000
0001
0010
0001
,
0000
0000
0001
0010
0100
1000
1000
0000
,
1100
0000
1000
0100
0010
0001
0001
0000
,
0120
0000
0000
0000
0000
0100
0130
0000
,
1000
0000
0010
0100
0000
0001
1000
0000
;
