#TITLE:Can't Help Falling In Love;
#ARTIST:Cut N Edge;
#BANNER:Can't Help Falling In Love.png;
#BACKGROUND:Can't Help Falling In Love-bg.png;
#CDTITLE:./CDTITLES/DanceDanceRevolution HOTTEST PARTY 2.png;
#MUSIC:Can't Help Falling In Love.ogg;
#SAMPLESTART:0.82;
#SAMPLELENGTH:15;
#BPMS:0=140;

//---------------dance-single - ----------------
#NOTES:
     dance-single:
     :
     Beginner:
     1:
     :
0000
0000
0000
0000
,
0000
0000
0000
0000
,
0000
0000
0000
0000
,
0001
0000
0000
0000
,
0100
0000
0000
0000
,
1000
0000
0000
0000
,
0100
0000
0000
0000
,
0001
0000
0000
0000
,
1001
0000
0000
0000
,
0100
0000
0000
0000
,
0010
0000
0000
0000
,
0100
0000
0000
0000
,
0010
0000
0000
0001
,
1000
0000
0000
0000
,
0001
0000
0000
0000
,
0100
0000
0000
0000
,
1001
0000
0000
0000
,
1000
0000
0000
0000
,
0100
0000
0000
0000
,
0001
0000
0000
0000
,
0100
0000
0000
0000
,
1000
0000
0000
0000
,
0100
0000
0000
0000
,
0001
0000
0000
0000
,
1001
0000
0000
0000
,
0100
0000
0000
0000
,
0010
0000
0000
0000
,
0100
0000
0000
0000
,
0010
0000
0000
0001
,
1000
0000
0000
0000
,
0001
0000
0000
0000
,
0100
0000
0000
0000
,
1001
0000
0000
0000
,
0001
0000
0001
0000
,
1001
0000
0000
0000
,
1000
0000
1000
0000
,
1001
0000
0000
0000
,
0010
0000
0010
0000
,
0110
0000
0000
0000
,
0100
0100
0000
0000
,
0010
0010
0000
0000
,
1000
1000
0000
0000
,
0001
0001
0000
0000
,
1000
0000
0000
0000
,
0100
0000
0000
0000
,
0001
0000
0000
0000
,
0100
0000
0000
0000
,
1000
0000
0000
0000
,
0100
0000
0000
0000
,
0001
0000
0000
0000
,
1001
0000
0000
0000
,
0100
0000
0000
0000
,
0010
0000
0000
0000
,
0100
0000
0000
0000
,
0010
0000
0000
0001
,
1000
0000
0000
0000
,
0001
0000
0000
0000
,
0100
0000
0000
0000
,
1001
0000
0000
0000
;

//---------------dance-single - ----------------
#NOTES:
     dance-single:
     :
     Easy:
     3:
     :
0000
0000
0000
0000
,
0000
0000
0000
0000
,
0000
0000
0000
0000
,
0002
0000
0000
0003
,
1000
0010
0100
0001
,
2000
0000
0000
3000
,
0200
0000
0000
0300
,
0020
0000
0000
0030
,
0001
0000
0110
0000
,
2000
0000
0000
3000
,
0200
0000
0000
0300
,
0020
0000
0000
0030
,
0001
0000
1001
0000
,
2000
0000
0000
3000
,
0200
0000
0000
0300
,
0020
0000
0000
0030
,
1000
0100
0001
0010
,
0200
0000
0001
0300
,
0020
0000
1000
0030
,
2000
0000
0000
3000
,
0001
0100
0010
1000
,
0002
0000
0100
0003
,
0020
0000
0100
0030
,
0200
0000
0010
0300
,
1000
0000
0110
0000
,
0002
0000
1000
0003
,
0020
0000
0100
0030
,
0200
0000
0010
0300
,
1000
0000
1001
0000
,
0002
0000
0010
0003
,
0020
0000
0100
0030
,
0200
0000
1000
0300
,
0001
0010
1000
0000
,
0001
1000
0100
0010
,
0220
0000
0330
0000
,
1000
0010
0001
1000
,
2002
0000
3003
0000
,
1000
0001
0100
0010
,
0220
0000
0330
0000
,
0100
2000
0000
3000
,
0001
0200
0000
0300
,
1000
0020
0000
0030
,
0100
0002
0000
0003
,
0200
0000
0001
0300
,
0020
0000
1000
0030
,
2000
0000
0000
3000
,
0001
0100
0010
1000
,
0002
0000
0100
0003
,
0020
0000
0100
0030
,
0200
0000
0010
0300
,
1000
0000
0110
0000
,
0002
0000
1000
0003
,
0020
0000
0100
0030
,
0200
0000
0010
0300
,
1000
0000
1001
0000
,
0002
0000
0010
0003
,
0020
0000
0100
0030
,
0200
0000
1000
0300
,
0110
0000
0000
0000
;

//---------------dance-single - ----------------
#NOTES:
     dance-single:
     :
     Medium:
     5:
     :
0000
0000
0000
0000
,
0000
0000
0000
0000
,
0000
0000
0000
0000
,
0002
0010
1000
0003
,
0100
0010
1000
0001
,
0002
0100
1000
0003
,
2000
0001
0010
3000
,
0020
0100
1000
0030
,
1000
0001
0100
0000
1000
0100
0001
0000
,
2000
0001
0100
3000
,
0200
0001
1000
0300
,
0020
0100
1000
0030
,
1001
0100
0010
1001
,
0020
1000
0100
0030
,
0200
1000
0001
0300
,
2000
0010
0100
3000
,
0100
0001
0010
0000
1000
0100
1000
0000
,
0002
0100
1000
0003
,
2000
0001
0010
3000
,
0020
0100
1000
0030
,
0100
0010
1000
0001
,
0002
0100
1000
0003
,
2000
0001
0010
3000
,
0020
0100
1000
0030
,
0001
1000
0100
0000
1000
0010
0001
0000
,
2000
0001
0100
3000
,
0200
0001
1000
0300
,
0020
0100
1000
0030
,
1001
0010
0100
1001
,
2000
0001
0100
3000
,
0200
0001
1000
0300
,
0020
0100
1000
0030
,
0100
1000
0001
0000
,
1001
1100
1000
0001
,
0220
0000
0000
0330
,
1010
1001
1000
0001
,
0202
0000
0000
0303
,
0101
1001
0100
0010
,
2002
0000
0000
3003
,
0100
2000
0100
3100
,
0010
0200
1000
1300
,
0010
0002
0100
0103
,
0110
0000
0000
0000
,
0020
1000
0100
0030
,
0200
1000
0001
0300
,
0002
0010
1000
0003
,
1000
0001
0010
0000
1000
0100
0001
0000
,
0020
1000
0100
0030
,
0200
1000
0001
0300
,
2000
0100
0001
3000
,
0010
1000
0001
0000
1000
0010
0001
0000
,
0200
0001
0010
0300
,
0020
1000
0100
0030
,
2000
0100
0001
3000
,
0010
0001
1000
0000
0001
0010
1000
0000
,
0200
0001
0010
0300
,
0020
1000
0100
0030
,
2000
0100
0001
3000
,
0110
0000
0000
0000
;

//---------------dance-single - ----------------
#NOTES:
     dance-single:
     :
     Hard:
     7:
     :
0000
0000
0000
0000
,
0000
0000
0000
0000
,
0000
0000
0000
0000
,
1002
0000
0100
0000
1000
1000
0103
0000
,
0010
0000
0100
0000
0010
1000
0001
0000
,
0102
0000
1000
0000
0010
0100
0103
0000
,
0011
0000
1000
0000
0100
0100
0001
0000
,
0102
0000
0010
0000
1000
0100
0103
0000
,
1000
0100
0010
0000
0001
1000
0100
0000
,
2010
0000
0100
0000
0001
0100
3100
0000
,
1001
0000
1000
0010
1000
0000
0101
0000
,
2001
0000
0100
0000
0001
0001
3100
0000
,
0010
0000
0100
0000
0010
0001
1000
0000
,
2100
0000
0001
0000
0010
0100
3100
0000
,
1010
0000
0001
0000
0100
0100
1000
0000
,
2100
0000
0010
0000
0001
0010
3010
0000
,
0001
0100
0010
0000
1000
0001
0100
0000
,
0120
0000
1000
0000
0001
0100
0130
0000
,
1010
0000
0100
0010
0100
0000
0011
0000
,
0120
0000
0001
0000
1000
1000
0130
0000
,
0010
0000
0100
0000
0010
1000
0001
0000
,
0120
0000
1000
0000
0001
0100
0130
0000
,
0011
0000
1000
0000
0100
0100
0001
0000
,
0120
0000
0001
0000
1000
0100
0130
0000
,
1000
0100
0010
0000
0001
1000
0100
0000
,
0210
0000
1000
0000
0001
0010
0310
0000
,
1100
0000
0010
0100
0010
0000
0101
0000
,
0210
0000
0001
0000
1000
1000
0310
0000
,
0100
0000
0010
0000
0100
1000
0001
0000
,
0210
0000
1000
0000
0001
0010
0310
0000
,
0101
0000
1000
0000
0010
0010
0001
0000
,
0210
0000
0001
0000
1000
0010
0310
0000
,
1000
0010
0100
0000
0001
1000
0010
0000
,
0011
0000
0101
0000
0011
0100
0100
0000
,
0110
0100
0001
0000
1001
1000
0100
0000
,
0011
0000
0101
0000
0011
0100
0100
0000
,
0110
0100
0001
0000
1001
1000
0100
0000
,
1010
0000
1100
0000
1010
0100
0100
0000
,
0110
0100
1000
0000
1001
0001
0100
0000
,
1001
0000
0000
0001
0000
0000
0001
0000
0000
0000
1000
0000
0000
0000
1000
0000
,
0110
0000
0000
0100
0000
0000
0100
0000
0000
0000
0010
0000
0000
0000
0010
0000
,
0001
0000
0000
0010
0000
0000
0010
0000
0000
0000
0100
0000
0000
0000
0100
0000
,
1000
0000
0000
0100
0000
0000
0100
0000
0000
0000
0000
0000
0000
0000
0000
0000
,
0120
0000
1000
0000
0001
0100
0130
0000
,
1010
0000
0100
0010
0100
0000
0011
0000
,
0120
0000
0001
0000
1000
1000
0130
0000
,
0010
0000
0100
0000
0010
1000
0001
0000
,
0120
0000
1000
0000
0001
0100
0130
0000
,
0011
0000
1000
0000
0100
0100
0001
0000
,
0120
0000
0001
0000
1000
0100
0130
0000
,
1000
0100
0010
0000
0001
1000
0100
0000
,
0210
0000
1000
0000
0001
0010
0310
0000
,
1100
0000
0010
0100
0010
0000
0101
0000
,
0210
0000
0001
0000
1000
1000
0310
0000
,
0100
0000
0010
0000
0100
1000
0001
0000
,
0210
0000
1000
0000
0001
0010
0310
0000
,
0101
0000
1000
0000
0010
0010
0001
0000
,
0210
0000
0001
0000
1000
0010
0310
0000
,
1001
0000
0000
0000
;
