#TITLE:Call On Me;
#ARTIST:flow;
#BANNER:Call On Me.png;
#BACKGROUND:Call On Me-bg.png;
#CDTITLE:./CDTITLES/DanceDanceRevolution HOTTEST PARTY 2.png;
#MUSIC:Call On Me.ogg;
#SAMPLESTART:15.205;
#SAMPLELENGTH:15;
#BPMS:0=136;

//---------------dance-single - ----------------
#NOTES:
     dance-single:
     :
     Beginner:
     1:
     :
0000
0000
0000
0000
,
0000
0000
0000
0000
,
0000
0000
0000
0000
,
2000
0000
0000
3000
,
0000
1001
0000
0000
,
0002
0000
0000
0003
,
0000
1001
0000
0000
,
2000
0000
0000
3000
,
0000
0000
0000
0000
,
2000
0000
0000
3000
,
0000
0001
0000
1000
,
0002
0000
0000
0003
,
0000
1000
0000
0001
,
2000
0000
0000
3000
,
0000
0001
0000
1000
,
0002
0000
0000
0003
,
0000
0000
0000
0000
,
1001
0000
0000
0000
,
0100
0000
0100
0000
,
1001
0000
0000
0000
,
0110
0000
1001
1001
,
1001
0000
0000
0000
,
0010
0000
0010
0000
,
1001
0000
0000
0000
,
0100
0000
0100
0000
,
0002
0000
0000
0003
,
0000
1000
0000
1000
,
0002
0000
0000
0003
,
0000
1000
0000
1000
,
2000
0000
0000
3000
,
0000
0001
0000
0001
,
2000
0000
0000
3000
,
0000
0000
0000
0000
,
2000
0000
0000
3000
,
0000
0001
0000
1000
,
0002
0000
0000
0003
,
0000
1000
0000
0001
,
2000
0000
0000
3000
,
0000
0001
0000
1000
,
0002
0000
0000
0003
,
0000
0000
0000
0000
,
0020
0000
0000
0030
,
0000
0000
0000
0000
,
0200
0000
0000
0300
,
0000
0000
0000
0000
,
1001
0000
0001
0001
,
0001
0000
0100
0000
,
1001
0000
1000
1000
,
1000
0000
0100
0000
,
1001
0000
0000
0000
;

//---------------dance-single - ----------------
#NOTES:
     dance-single:
     :
     Easy:
     3:
     :
0000
0000
0000
0000
,
0000
0000
0000
0000
,
0000
0000
0000
0000
,
2001
0000
0000
3000
,
0000
0110
0000
0110
,
1002
0000
0000
0003
,
0000
0110
0000
0110
,
2001
0000
0000
3000
,
0002
0000
0003
0000
,
0220
0000
0000
0330
,
0000
0110
0000
1001
,
0220
0000
0000
0330
,
0000
0110
0000
0110
,
2002
0000
0000
3003
,
0000
1001
0000
0110
,
2002
0000
0000
3003
,
0000
0000
0000
0000
,
1001
0000
0100
0000
,
0001
0000
0100
0000
,
1001
0000
0100
0000
,
1001
1001
0110
0110
,
1001
0000
0100
0000
,
1000
0000
0100
0000
,
1001
0000
0100
0000
,
0001
0000
0100
0000
,
2000
0000
0000
3000
,
0000
0100
0000
0100
,
0002
0000
0000
0003
,
0000
0100
0000
0100
,
2000
0000
0000
3000
,
0000
0100
0000
0100
,
0002
0000
0000
0003
,
0000
0000
0000
0000
,
0220
0000
0000
0330
,
0000
0110
0000
1001
,
0220
0000
0000
0330
,
0000
0110
0000
0110
,
2002
0000
0000
3003
,
0000
1001
0000
0110
,
2002
0000
0000
3003
,
0000
0000
0000
0000
,
2000
0000
0000
3000
,
0000
0001
0000
0100
,
0002
0000
0000
0003
,
0000
1000
0000
0100
,
1001
0000
1000
0010
,
0010
0000
0100
0000
,
1001
0000
0001
0100
,
0100
0000
0100
0000
,
1001
0000
0000
0000
;

//---------------dance-single - ----------------
#NOTES:
     dance-single:
     :
     Medium:
     6:
     :
0000
0000
0000
0000
,
0000
0000
0000
0000
,
0000
0000
0000
0000
,
2001
0100
0010
3100
,
0001
0100
1000
0010
,
1002
0100
0010
0103
,
0001
0010
1000
0100
,
2001
0100
0010
3100
,
0002
0000
0003
0000
,
1000
0000
0011
0000
1000
0100
1000
0010
,
0100
0000
0101
0000
0010
0000
0101
0100
,
1000
0000
1010
0000
0001
0010
0001
0010
,
0100
0000
1100
0000
0010
0000
1010
0010
,
0001
0000
1100
0000
0001
0010
0001
0100
,
0010
0000
1010
0000
0100
0000
1010
0010
,
0001
0000
0101
0000
1000
0100
1000
0100
,
0020
0000
0030
0000
,
0210
0000
1000
0310
,
0001
0010
0001
0010
0100
1000
0100
0000
,
0210
0000
0001
0310
,
1000
0001
1000
0001
0200
0000
0000
0300
,
1001
0000
0010
1000
,
0001
0010
1000
0010
0100
1000
0100
0000
,
1001
0000
0100
0001
,
1000
0010
0001
0010
0100
0001
0100
1000
,
0200
0010
1000
0310
,
0100
1100
0010
1010
,
0200
0010
1000
0310
,
0100
0101
0010
0011
,
0200
0010
0001
0310
,
0100
1100
0010
0011
,
0200
0010
0001
0310
,
2002
0000
3003
0000
,
1000
0000
0011
0000
1000
0100
1000
0010
,
0100
0000
0101
0000
0010
0000
0101
0100
,
1000
0000
1010
0000
0001
0010
0001
0010
,
0100
0000
1100
0000
0010
0000
1010
0010
,
0001
0000
1100
0000
0001
0010
0001
0100
,
0010
0000
1010
0000
0100
0000
1010
0010
,
0001
0000
0101
0000
1000
0100
1000
0100
,
0020
0000
0030
0000
,
2000
0000
0010
0010
,
3002
0000
0203
0000
,
0302
0000
0010
0010
,
2003
0000
3200
0000
,
1300
0000
0001
0000
0010
0100
1000
0100
,
0001
1100
0010
1100
,
1000
0000
0001
0000
0100
0010
1000
0010
,
0001
1100
0010
1100
,
1001
0000
0000
0000
;

//---------------dance-single - ----------------
#NOTES:
     dance-single:
     :
     Hard:
     8:
     :
0000
0000
0000
0000
,
0000
0000
0000
0000
,
0000
0000
0000
0000
,
0101
0100
0101
0100
,
0001
0010
0100
0000
1000
0100
0010
0000
,
1100
0100
1100
0100
,
0001
0100
0010
0000
1000
0010
0100
0000
,
1001
0100
1001
0100
,
0020
0000
0030
0000
,
1000
0000
0000
0000
0001
0000
1000
0010
0000
1000
0100
0000
1000
0001
0000
0001
,
0010
0000
0000
0010
0000
0000
0010
0000
0100
0000
0000
0100
0000
0000
1000
0001
,
1000
0000
0000
0000
0001
0000
1000
0100
0000
1000
0010
0000
1000
0001
0000
0001
,
0010
0000
0000
0010
0000
0000
0010
0000
0100
0000
0000
0100
0000
0000
1000
0001
,
1000
0000
0000
0000
0001
0000
1000
0010
0000
1000
0100
0000
1000
0001
0000
0001
,
0100
0000
0000
0100
0000
0000
0100
0000
0010
0000
0000
0010
0000
0000
1000
0001
,
1000
0000
0000
0000
0001
0000
1000
0100
0000
1000
0010
0000
1000
0001
0000
0001
,
0100
0000
0000
0100
0000
0000
0100
0000
0010
0000
0000
0010
0000
0000
1000
0001
,
1000
0000
0000
0000
0000
0000
0001
1000
0000
0001
1000
0000
0001
1000
0000
1000
,
0100
0000
0000
0100
0000
0000
0100
0000
0001
0000
0000
0001
0000
0000
0001
0010
,
0001
0000
0000
0000
0000
0000
1000
0001
0000
1000
0001
0000
1000
0001
0000
1000
,
0100
0000
0100
0000
0100
0000
0100
0000
1000
0001
1000
0001
1000
0001
1000
0001
,
1000
0000
0000
0000
0000
0000
1000
0010
0000
1000
0100
0000
1000
0010
0000
1000
,
0100
0000
0000
0100
0000
0000
1000
0000
0010
0000
0000
0010
0000
0000
0001
1000
,
0001
0000
0000
0000
0000
0000
0001
0100
0000
0001
0010
0000
0001
0100
0000
0001
,
0010
0000
0000
0010
0000
0000
0001
0000
0100
0000
0000
0100
0000
0000
1000
0001
,
1000
0000
0000
0000
0110
0000
0000
0100
0000
0000
0100
0000
1000
0001
0000
0000
,
1000
0000
0000
1000
0010
0000
0000
0100
0000
0000
0100
0000
0001
0000
0000
0000
,
1000
0000
0000
0000
0110
0000
0000
0010
0000
0000
0010
0000
1001
0000
0000
0000
,
1000
0000
0000
1000
0100
0000
0000
0010
0000
0000
0010
0000
1000
0000
0000
0000
,
0001
0000
0000
0000
0110
0000
0000
0100
0000
0000
0100
0000
1001
0000
0000
0000
,
0001
0000
0000
0001
0010
0000
0000
0100
0000
0000
0100
0000
0001
0000
0000
0000
,
1000
0000
0000
0000
0110
0000
0000
0010
0000
0000
0010
0000
1001
0000
0000
0000
,
0200
0000
0300
0000
,
0001
0000
0000
0000
1000
0000
0001
0100
0000
0001
0010
0000
0001
1000
0000
1000
,
0100
0000
0000
0100
0000
0000
0100
0000
0010
0000
0000
0010
0000
0000
0001
1000
,
0001
0000
0000
0000
1000
0000
0001
0010
0000
0001
0100
0000
0001
1000
0000
1000
,
0010
0000
0000
0010
0000
0000
0010
0000
0100
0000
0000
0100
0000
0000
0001
1000
,
0001
0000
0000
0000
1000
0000
0001
0100
0000
0001
0010
0000
0001
1000
0000
1000
,
0010
0000
0000
0010
0000
0000
0010
0000
0100
0000
0000
0100
0000
0000
0001
1000
,
0001
0000
0000
0000
1000
0000
0001
0010
0000
0001
0100
0000
0001
1000
0000
1000
,
0100
0000
0000
0100
0000
0000
0100
0000
0010
0000
0000
0010
0000
0000
0001
0000
,
0200
0000
0000
0000
0300
0000
1000
0100
0000
0100
0010
0000
0010
0001
0000
1000
,
0200
0000
0000
1000
0000
0000
1300
0000
0020
0000
0000
0001
0000
0000
0031
0000
,
0200
0000
0000
0000
0300
0000
0001
0100
0000
0100
0010
0000
0010
1000
0000
0001
,
0200
0000
0000
0001
0000
0000
0301
0000
0020
0000
0000
1000
0000
0000
1030
0000
,
1000
0000
0000
0000
0000
0000
1000
0100
0000
0001
0100
0000
0000
0000
0010
0000
,
1000
0000
0000
0100
0000
0000
0001
0000
1000
0000
0000
0100
0000
0000
0010
0100
,
0001
0000
0000
0000
0000
0000
0001
0010
0000
1000
0010
0000
0000
0000
0100
0000
,
0001
0000
0000
0010
0000
0000
1000
0000
0001
0000
0000
0010
0000
0000
0100
0000
,
1001
0000
0000
0000
;
