#TITLE:Bust A Move;
#ARTIST:Young MC;
#BANNER:Bust A Move.png;
#BACKGROUND:Bust A Move-bg.png;
#CDTITLE:./CDTITLES/DanceDanceRevolution HOTTEST PARTY 2.png;
#MUSIC:Bust A Move.ogg;
#SAMPLESTART:38.755;
#SAMPLELENGTH:15;
#DISPLAYBPM:118;
#BPMS:0=117.6,128=116.3,131=117.6;

//---------------dance-single - ----------------
#NOTES:
     dance-single:
     :
     Beginner:
     1:
     :
0000
0000
0000
0000
,
0000
0000
0000
0000
,
0000
0000
0000
0000
,
1000
0000
0000
0000
,
0001
0000
0000
0000
,
1000
0000
0000
0000
,
0001
0000
0000
0000
,
0010
0000
0000
0000
,
0100
0000
0000
0000
,
0010
0000
0000
0000
,
0100
0000
1001
0000
,
0010
0000
0000
0000
,
0100
0000
0000
0000
,
1000
0000
0000
0000
,
0001
0000
0000
0000
,
0010
0000
0000
0000
,
0001
0000
0000
0000
,
1000
0000
0000
0000
,
0001
0000
1001
0000
,
0000
0000
0100
0000
,
0000
0000
0010
0000
,
0000
0000
0001
0000
,
0000
0000
0110
0000
,
0000
0000
0010
0000
,
0000
0000
0100
0000
,
0000
0000
1000
0000
,
0000
0000
1001
0000
,
0001
0000
0000
0000
,
1000
0000
0000
0000
,
0001
0000
0000
0000
,
1000
0000
0000
0000
,
0100
0000
0000
0000
,
0010
0000
0000
0000
,
0100
0000
0000
0000
,
0010
0000
1001
0000
,
0000
0000
0000
0000
,
0010
0000
0000
0000
,
0001
0000
0000
0000
,
1000
0000
0000
0000
,
0100
0000
0000
0000
,
1000
0000
0000
0000
,
0001
0000
0000
0000
,
1000
0000
1001
0000
,
0000
0000
0100
0000
,
0000
0000
0010
0000
,
0000
0000
1000
0000
,
0000
0000
0110
0000
,
0000
0000
0010
0000
,
0000
0000
0100
0000
,
0000
0000
0001
0000
,
0000
0000
1001
0000
;

//---------------dance-single - ----------------
#NOTES:
     dance-single:
     :
     Easy:
     3:
     :
0000
0000
0000
0000
,
0000
0000
0000
0000
,
0000
0000
0000
0000
,
1000
0000
0000
0010
,
1000
0000
0000
0000
,
0001
0000
0000
0100
,
0001
0000
0000
0000
,
1000
0000
0000
0010
,
1000
0000
0000
0000
,
0001
0000
0000
0000
,
1001
0100
0100
0000
,
1000
1000
0000
0000
,
0001
0001
0000
0000
,
1000
1000
0000
0000
,
0010
0000
0100
0000
,
0001
0001
0000
0000
,
1000
1000
0000
0000
,
0001
0001
0000
0000
,
1001
0010
0010
0000
,
0100
0000
0000
0000
,
0100
0000
0000
0000
,
1000
0000
0000
0000
,
1000
0000
0110
0010
,
0010
0000
0000
0000
,
0010
0000
0000
0000
,
0001
0000
0000
0000
,
0001
0010
0010
0010
,
0010
0000
0000
0000
,
1000
0100
1000
0100
,
0100
0000
0000
0000
,
0001
0010
0001
0010
,
0010
0000
0000
0000
,
1000
0100
1000
0100
,
0100
0000
0000
0000
,
0001
0010
0001
0010
,
0010
0000
1000
0100
,
1000
0000
0001
0010
,
0001
0000
0000
0000
,
0001
0100
0010
1000
,
0000
1000
1000
0100
,
0000
0001
0001
0010
,
0000
1000
1000
0100
,
1001
0100
0100
0000
,
0010
0000
0010
0000
,
0100
0000
0100
0000
,
0001
0000
0001
0000
,
1000
0000
1000
0110
,
0100
0000
0100
0000
,
0010
0010
0010
0000
,
1000
1000
1000
0000
,
1000
0000
0001
1001
;

//---------------dance-single - ----------------
#NOTES:
     dance-single:
     :
     Medium:
     5:
     :
0000
0000
0000
0000
,
0000
0000
0000
0000
,
0000
0000
0000
0000
,
0010
0000
0100
0010
0100
0000
1000
0000
,
1000
0000
0100
1000
0100
0000
0001
0000
,
0001
0000
0010
0001
0010
0000
0100
0000
,
0100
0000
0010
0100
0010
0000
0100
0000
,
0010
0000
1000
0100
0010
0000
1000
0000
,
1000
0000
0010
0100
1000
0000
0001
0000
,
0001
0000
0010
0100
1000
0000
0100
0000
,
1000
0110
0001
1001
,
2000
3001
2000
3010
,
1000
0100
0001
1000
,
0001
0000
0001
1000
,
0001
0010
0100
1000
0110
0000
1001
0000
,
0002
1003
0002
0103
,
0001
0010
1000
0001
,
1000
0000
1000
0001
,
1000
0010
0100
0000
0001
0100
0010
0000
,
0001
0000
0000
0000
0100
0100
0100
0000
,
0010
0000
0000
0000
1000
1000
1000
0000
,
0001
0000
0000
0000
0010
0010
0010
0000
,
0001
0100
0010
0110
,
1000
0000
0000
0000
0010
0010
0010
0000
,
0100
0000
0000
0000
0001
0001
0001
0000
,
1000
0000
0000
0000
0100
0100
0100
0000
,
1000
0000
0010
0000
0100
0010
1001
0000
,
0010
0000
0010
0010
,
0001
0010
0100
0000
1000
0100
0001
0000
,
1000
0000
1000
0001
,
1000
0010
0100
0001
0110
0000
1001
0000
,
0100
0000
0100
0100
,
1000
0100
0010
0000
0001
0010
1000
0000
,
0001
0000
0001
1000
,
0001
0100
0010
0000
1000
0010
0100
0000
,
0002
1003
0002
0103
,
0001
0100
0010
0000
1000
0010
0001
0000
,
1000
0000
1000
0001
,
1000
0100
0010
0001
0110
0000
1001
0000
,
2000
3001
2000
3010
,
1000
0010
0100
0000
0001
0100
1000
0000
,
0001
1000
0001
1000
,
0001
0100
0010
0000
1000
0010
0100
0000
,
1000
0000
0000
0000
0010
0010
0010
0000
,
0100
0000
0000
0000
0001
0001
0001
0000
,
1000
0000
0000
0000
0100
0100
0100
0000
,
1000
0010
0100
0110
,
0001
0000
0000
0000
0100
0100
0100
0000
,
0010
0000
0000
0000
1000
1000
1000
0000
,
0001
0000
0000
0000
0010
0010
0010
0000
,
0001
0000
0100
0000
0010
0100
1001
0000
;

//---------------dance-single - ----------------
#NOTES:
     dance-single:
     :
     Hard:
     7:
     :
0000
0000
0000
0000
,
0000
0000
0000
0000
,
0000
0000
0000
0000
,
0001
0000
1000
1000
0001
0000
0100
0100
,
0001
0010
0100
0000
0010
0000
0000
0000
1000
0100
0010
0000
0001
0000
0000
0000
,
1000
0000
0001
0001
1000
0000
0010
0010
,
1000
0100
0010
0001
0110
0000
1001
0000
,
1000
0000
0001
0001
1000
0000
0010
0010
,
1000
0100
0010
0000
0100
0000
0000
0000
0001
0010
0100
0000
1000
0000
0000
0000
,
0001
0000
0001
0000
1000
0001
1000
0000
0001
0000
0100
0000
0010
0000
1000
0000
,
0001
0010
0100
0010
1000
0001
0010
0000
,
2000
0000
3001
0001
2000
0000
3100
0100
,
1000
0010
0100
0000
0010
0000
0100
0000
0001
0100
0010
0000
1000
0000
1000
0000
,
0001
0000
1000
1000
0001
0000
0010
0010
,
0001
0100
0010
1000
0110
0000
1001
0000
,
0002
0000
1003
1000
0002
0000
0013
0010
,
0001
0100
0010
0000
0100
0000
0010
0000
1000
0010
0100
0000
0001
0000
0001
0000
,
1000
0000
1000
0000
0001
1000
0001
0000
1000
0000
0100
0000
0010
0000
0001
0000
,
1000
0010
0100
0010
0001
1000
0010
0000
,
0001
0020
1030
1000
,
0010
0002
0103
0100
,
0001
0000
0200
0000
1300
0010
1000
0000
,
0001
0010
0100
1000
0011
0000
1001
0000
,
1000
0200
0301
0001
,
0100
2000
3010
0010
,
1000
0000
0020
0000
0031
0100
0001
0000
,
1000
0100
0010
0001
1100
0000
0000
0000
,
0001
0010
1000
1000
0001
0100
0010
0010
,
0001
0100
0010
0000
0100
0000
0000
0000
1000
0010
0100
0000
0001
0000
0010
0000
,
1000
0100
0001
0001
1000
0010
0100
0100
,
1000
0010
0100
0001
0110
0000
1001
0001
,
1000
0010
0001
0001
1000
0010
0100
0100
,
1000
0010
0100
0000
0010
0000
0100
0000
0001
0100
0010
0000
1000
0000
0100
0000
,
0001
0000
0001
0000
1000
0001
1000
0000
0001
0000
0010
0000
0100
0000
1000
0000
,
0001
0100
0010
0100
1000
0001
0100
0000
,
0002
0000
1003
1000
0002
0000
0013
0010
,
0001
0100
0010
0000
0100
0000
0010
0000
1000
0010
0100
0000
0001
0000
0100
0000
,
1000
0010
0001
0001
1000
0010
0100
0100
,
1000
0010
0100
0001
0110
0000
1001
0001
,
2000
0000
3001
0001
2000
0000
3100
0100
,
1000
0010
0100
0000
0010
0000
0100
0000
0001
0100
0010
0000
1000
0000
0100
0000
,
0001
0000
0001
0000
1000
0001
1000
0000
0001
0000
0010
0000
0100
0000
1000
0000
,
0001
0100
0010
0100
1000
0001
0100
0000
,
0001
1020
1030
1000
,
0010
0102
0103
0100
,
0001
1200
1300
1000
,
0001
0010
0100
1000
0011
0000
1001
0000
,
1000
0000
0201
0000
0301
0010
0001
0000
,
1000
0000
0021
0000
0031
0100
0001
0000
,
0001
0000
1020
0000
1030
0100
1000
0000
,
1000
0100
0010
0001
1100
1000
1000
1000
;
