#TITLE:Black or White;
#ARTIST:Prince Royal;
#BANNER:Black or White.png;
#BACKGROUND:Black or White-bg.png;
#CDTITLE:./CDTITLES/DanceDanceRevolution HOTTEST PARTY 2.png;
#MUSIC:Black or White.ogg;
#SAMPLESTART:13.765;
#SAMPLELENGTH:15;
#BPMS:0=124;

//---------------dance-single - ----------------
#NOTES:
     dance-single:
     :
     Beginner:
     1:
     :
0000
0000
0000
0000
,
0000
0000
0000
0000
,
0000
0000
0000
0000
,
0100
0000
0000
0000
,
0100
0000
0000
0000
,
0010
0000
0000
0000
,
0010
0000
0000
0000
,
0001
0000
0000
0000
,
0001
0000
0000
0000
,
1000
0000
0000
0000
,
1000
0000
0000
0000
,
0001
0000
0000
0000
,
0001
0000
0000
0000
,
0000
0010
0000
0000
,
0100
0000
0000
0000
,
1001
0000
0000
0000
,
1001
0000
0000
0000
,
0000
0010
0000
0000
,
0100
0000
0000
0000
,
1001
0000
0000
0000
,
1001
0000
0000
0000
,
0000
0010
0000
0000
,
0001
0000
0000
0000
,
0000
0000
0000
0000
,
1000
0000
0000
0000
,
0000
0000
0000
0000
,
0000
1000
1000
0000
,
0001
0000
0000
0000
,
0000
0001
0001
0000
,
1000
0000
0000
0000
,
0000
0001
0000
0000
,
0000
1000
0000
0000
,
0001
0000
0000
0000
,
0001
0000
0000
0000
,
1001
0000
0000
0000
,
1001
0000
0000
0000
,
1000
0000
0000
0000
,
1000
0000
0000
0000
,
1001
0000
0000
0000
,
1001
0000
0000
0000
,
1001
0000
0000
0000
,
0100
0000
0000
0000
,
1001
0000
0000
0000
,
0100
0000
0000
0000
,
1001
0000
0000
0000
,
0100
0000
0000
0000
,
1001
0000
0000
0000
,
0000
0000
0110
0000
,
1001
0000
0000
0000
;

//---------------dance-single - ----------------
#NOTES:
     dance-single:
     :
     Easy:
     2:
     :
0000
0000
0000
0000
,
0000
0000
0000
0000
,
0000
0000
0000
0000
,
0010
0000
0001
0000
,
0000
0000
0000
0100
,
0100
0000
1000
0000
,
0000
0000
0000
0010
,
1000
0100
1000
0100
,
0000
0000
0000
0000
,
0001
0100
0001
0100
,
0000
0000
0000
0000
,
1000
0001
1000
0000
,
1000
0001
1000
0000
,
0000
0100
1000
0000
,
0010
1000
0000
0000
,
1001
0000
0001
0000
,
1001
0000
1000
0000
,
0000
0100
0001
0000
,
0010
0001
0000
0000
,
1001
0000
1000
0000
,
1001
0000
0001
0000
,
0000
0100
1000
0000
,
2000
0000
0000
0000
,
0000
0000
0000
3000
,
0002
0000
0000
0000
,
0000
0000
0000
0003
,
0000
0001
1000
0000
,
0010
0000
1000
0001
,
0000
1000
0001
0000
,
0010
1000
0001
0001
,
0000
0000
1000
1000
,
0000
0000
0001
0001
,
1000
0100
1000
0100
,
0000
0000
0000
0000
,
1001
0000
0001
0000
,
1001
0000
1000
0000
,
0001
0100
0001
0100
,
0000
0000
0000
0000
,
1001
0000
1000
0000
,
1001
0000
0001
0000
,
0000
1100
0000
0101
,
0000
0100
0000
0100
,
0000
0101
0000
1100
,
0000
0000
0000
0000
,
0000
1001
0000
0110
,
0000
0010
0000
0010
,
0000
1001
0000
0110
,
0000
0000
0110
0000
,
1001
0000
0000
0000
;

//---------------dance-single - ----------------
#NOTES:
     dance-single:
     :
     Medium:
     4:
     :
0000
0000
0000
0000
,
0000
0000
0000
0000
,
0000
0000
0000
0000
,
0100
0010
1000
0100
,
0100
0000
0001
0000
0000
0100
0100
0000
,
0010
0100
0001
0010
,
0010
0000
1000
0000
0000
0010
0010
0000
,
0001
0010
0001
0000
,
0001
0001
1000
0000
,
1000
0010
1000
0000
,
1000
1000
0001
0000
,
0001
0000
1000
0000
0001
1000
0000
0000
,
0001
0000
1000
0000
0001
1000
0000
0000
,
0000
0000
1000
0000
0001
0010
0000
0000
,
0100
0000
0001
1000
0000
0000
0000
0000
,
1001
0110
1000
1000
,
1001
0110
0001
0001
,
0000
0000
0001
0000
1000
0010
0000
0000
,
0100
0000
1000
0001
0000
0000
0000
0000
,
1001
0110
0001
0001
,
1001
0110
1000
1000
,
0000
0010
0001
0010
,
0002
1000
0000
1000
,
0000
0000
1000
0000
0000
1000
1003
0000
,
2000
0001
0000
0001
,
0000
0000
0001
0000
0000
0001
3001
0000
,
0000
0002
2003
3000
,
0002
0103
2000
3100
,
0000
0002
2003
3000
,
0100
0000
0001
0000
1000
0001
1000
0001
,
0000
0000
0001
0000
0000
1000
0010
0000
,
0000
0000
1000
0000
0000
0001
0010
0000
,
0001
0010
0001
0000
,
0001
0001
0010
0001
,
1001
0110
1000
1000
,
1001
0110
0001
0001
,
1000
0010
1000
0000
,
1000
1000
0100
1000
,
1001
0110
0001
0001
,
1001
0110
1000
1000
,
0010
0011
0100
1100
,
1000
0100
0001
0000
,
0100
1100
0010
0011
,
0000
0000
0000
0000
0000
0000
0000
0000
1001
0000
0110
0000
0000
0110
0000
0000
,
1001
0100
0100
1001
,
0001
0010
1000
0000
,
1001
0010
0010
1001
,
0000
0000
0000
0000
0000
0000
0000
0000
1001
0000
0110
0000
0000
0110
0000
0000
,
1001
0000
0000
0000
;

//---------------dance-single - ----------------
#NOTES:
     dance-single:
     :
     Hard:
     5:
     :
0000
0000
0000
0000
,
0000
0000
0000
0000
,
0000
0000
0000
0000
,
0010
0000
0100
0000
0001
0100
0000
0000
,
0010
0100
0000
1000
0000
0100
0001
0000
,
0100
0000
0010
0000
1000
0010
0000
0000
,
0100
0010
0000
0001
0000
0010
1000
0000
,
1000
0000
0100
0000
1000
0010
1000
0000
,
1000
0100
1000
0001
0000
0100
1000
0000
,
0001
0000
0100
0000
0001
0010
0001
0000
,
0001
0100
0001
1000
0000
0100
0001
0000
,
1000
0100
0001
0000
1000
0001
0000
0000
,
1000
0100
0001
0000
1000
0100
0010
0001
,
0000
0000
0100
0000
1000
0100
0000
0000
,
0010
0100
1000
0001
0000
1000
0001
0000
,
1001
1100
0001
0001
,
1001
0101
1000
1000
,
0000
0000
0100
0000
0001
0100
0000
0000
,
0010
0100
0001
1000
0000
0001
1000
0000
,
1001
0101
1000
1000
,
1001
1100
0001
0001
,
0000
0000
0100
0000
1000
0100
0000
0000
,
2000
0001
0100
0001
,
0100
0000
0001
0000
0000
0001
3001
0000
,
0002
1000
0100
1000
,
0100
0000
1000
0000
0000
1000
1003
0000
,
0000
0002
2003
3000
,
0020
0000
0130
0100
2000
0000
3001
0000
,
0000
2000
3002
0003
,
0010
0100
1000
0100
0001
0100
1000
0001
,
0000
0000
1000
0000
0000
0001
0100
0000
,
0000
0000
0001
0000
0000
1000
0100
0000
,
1000
0000
0100
0000
1000
0010
1000
0000
,
1000
0100
1000
0001
0000
0100
1000
0000
,
1001
1100
0001
0001
,
1001
0101
1000
1000
,
0001
0000
0100
0000
0001
0010
0001
0000
,
0001
0100
0001
1000
0000
0000
0100
0001
,
1001
0101
1000
1000
,
1001
0000
1100
0000
0001
0000
0001
0100
,
1100
0000
0000
0010
0101
0000
0000
0010
,
0100
0001
1000
0100
0010
0000
0000
0100
,
0101
0000
0000
0010
1100
0000
0000
0000
,
0000
0000
0000
0000
0000
0000
0000
0000
0101
0000
1100
0000
0000
0110
0000
0000
,
1001
0000
0000
0010
1001
0000
0000
0010
,
0100
1000
0001
0100
0010
0000
0000
0100
,
1100
0000
0000
0010
0011
0000
0000
0000
,
0000
0000
0000
0000
0000
0000
0000
0000
1100
0000
0101
0000
0000
0110
0000
0000
,
1001
0000
0000
0000
;
