#TITLE:unappreciated;
#ARTIST:Wrapped Up;
#BANNER:unappreciated.png;
#BACKGROUND:unappreciated-bg.png;
#CDTITLE:./CDTITLES/Dance Dance Revolution HOTTEST PARTY.png;
#MUSIC:unappreciated.ogg;
#SAMPLESTART:5.055;
#SAMPLELENGTH:15;
#DISPLAYBPM:142;
#BPMS:0=142;

//---------------dance-single - ----------------
#NOTES:
     dance-single:
     :
     Beginner:
     1:
     :
0000
0000
0000
0000
,
0000
0000
0000
0000
,
0000
0000
0000
0000
,
0000
0000
0000
0000
,
1000
0000
0000
0000
,
0001
0000
0000
0000
,
1000
0000
0000
0000
,
1000
0000
0000
0000
,
0001
0000
0000
0000
,
0100
0000
0100
0000
,
0010
0000
0010
0000
,
1000
0000
0001
0000
,
1000
0000
0000
0000
,
0001
0000
0000
0000
,
1000
0000
0000
0000
,
1000
0000
0000
0000
,
0001
0000
0000
0000
,
0100
0000
0100
0000
,
0010
0000
0010
0000
,
1000
0000
0001
0000
,
1001
0000
0000
0100
,
0000
0000
0000
0000
,
0001
0000
0000
0000
,
0001
0000
0000
0000
,
1000
0000
0000
0000
,
1000
0000
0000
0000
,
0010
0000
0100
0000
,
0100
0000
0010
0000
,
0001
0000
0000
0000
,
0001
0000
0000
0000
,
1000
0000
0000
0000
,
1000
0000
0000
0000
,
0010
0000
0100
0000
,
0100
0000
0010
0000
,
0001
0000
0000
0000
,
1000
0000
0000
0000
,
1001
0000
0000
0000
,
1000
0000
1000
0000
,
0001
0000
0000
0000
,
0001
0000
0001
0000
,
1000
0000
0000
0000
,
0010
0000
0010
0000
,
0100
0000
0100
0000
,
0001
0000
1000
0000
,
1001
0000
0000
0000
,
0001
0000
0001
0000
,
1000
0000
0000
0000
,
1000
0000
1000
0000
,
0001
0000
0000
0000
,
0100
0000
0100
0000
,
0010
0000
0010
0000
,
1000
0000
0001
0000
,
1001
0000
0000
0000
;

//---------------dance-single - ----------------
#NOTES:
     dance-single:
     :
     Easy:
     4:
     :
0000
0000
0000
0000
,
0000
0000
0000
0000
,
0000
0000
0000
0000
,
0000
0000
0000
0000
,
0110
0000
0001
0000
,
2000
0000
0000
3000
,
0001
0000
1000
0000
,
0002
0000
0000
0003
,
1000
0000
0001
0000
,
0001
1000
0001
0000
,
1000
0001
1000
0000
,
1001
0000
0100
0000
,
2000
0000
0000
3000
,
0110
0000
1000
0000
,
0002
0000
0000
0003
,
1000
0000
0001
0000
,
2000
0000
0000
3000
,
0200
0000
0000
0300
,
1000
0001
1000
0000
,
0001
1000
0001
0000
,
1001
0000
0000
0220
,
0000
0000
0000
0330
,
0000
0000
0001
0000
0000
0001
0000
0000
,
0000
0000
1000
0000
0000
1000
0000
0000
,
0000
0000
0010
0000
0000
0010
0000
0000
,
0000
0000
0100
0000
0000
0100
0000
0000
,
1000
1000
0000
0001
,
0100
0100
0100
0010
,
0000
0000
1000
0000
0000
1000
0000
0000
,
0000
0000
0001
0000
0000
0001
0000
0000
,
0000
0000
0100
0000
0000
0100
0000
0000
,
0000
0000
0010
0000
0000
0010
0000
0000
,
0001
0001
0000
1000
,
0010
0010
0010
0100
,
0001
0000
1000
0000
,
1000
0000
0100
0000
,
0200
0300
0020
0030
,
1000
0000
1000
0000
,
0002
0000
0000
0003
,
0001
0000
0001
0000
,
2000
0000
0000
3000
,
0002
0003
0200
0300
,
0020
0030
2000
3000
,
1001
0000
0110
0000
,
2002
0000
0000
3003
,
0001
0000
0001
0000
,
2000
0000
0000
3000
,
1000
0000
1000
0000
,
0002
0000
0000
0003
,
2000
3000
0020
0030
,
0200
0300
0002
0003
,
1001
0000
0110
0000
,
1001
0000
0000
0000
;

//---------------dance-single - ----------------
#NOTES:
     dance-single:
     :
     Medium:
     5:
     :
0000
0000
0000
0000
,
0000
0000
0000
0000
,
0000
0000
0000
0000
,
0000
0000
0000
0000
,
1001
0010
0100
1001
,
2000
3001
0002
0003
,
1000
0100
1000
1010
,
0002
1003
2000
3000
,
0001
0010
0001
0101
,
2200
3300
0022
0033
,
2020
3030
0202
0303
,
1001
0000
0110
0000
,
2002
0000
0000
3003
,
1000
0100
1000
0000
0001
0000
0101
0000
,
2000
3000
0002
0003
,
0001
0010
0001
0000
1000
0000
1010
0000
,
0002
0003
2000
3000
,
0020
0030
0200
0300
,
2000
3100
0020
0031
,
0002
0013
0200
1300
,
1000
0001
0100
0220
,
0000
0000
0000
0330
,
0000
0000
0001
0000
1000
0100
0010
0000
,
1000
1000
0001
0001
0010
0100
1000
0000
,
0200
0000
0320
0000
,
0030
0000
0000
0000
,
1100
0000
0000
0110
0000
0000
0011
0000
,
0000
1000
0100
1000
0100
0010
0002
0000
,
0000
0003
0000
0000
,
0120
0000
0100
0030
,
1000
0010
0200
0300
,
0001
0010
0020
0130
,
0100
2200
0000
3300
,
0000
0000
1000
1001
,
0011
0000
0000
0110
0000
0000
1100
0000
,
1000
2000
3000
0000
,
0200
0310
0020
0031
,
1000
0100
1000
0001
1000
0010
1000
0000
,
0002
0003
2000
3000
,
0001
0010
0001
1000
0001
0100
0001
0000
,
2000
3000
0002
0003
,
0022
0033
2200
3300
,
0202
0303
2020
3030
,
1001
0000
0110
0000
,
2002
0000
0000
3003
,
0200
1300
0002
0013
,
0000
2020
0000
3030
,
0020
0031
2000
3100
,
0000
0202
0000
0303
,
0021
0031
1200
1300
,
0011
1000
1100
0001
,
1000
0100
1000
0000
0001
0010
0001
0000
,
0010
0110
0000
0000
;

//---------------dance-single - ----------------
#NOTES:
     dance-single:
     :
     Hard:
     7:
     :
0000
0000
0000
0000
,
0000
0000
0000
0000
,
0000
0000
0000
0000
,
0000
0000
0000
0000
,
1000
0100
0010
0000
0100
0010
0001
0000
,
0001
0010
0010
0000
1000
0000
0001
0000
,
0001
0010
1000
0000
0100
0010
0010
0000
,
1000
0100
0100
0000
0001
0000
1000
0000
,
1000
0100
0001
0000
0010
0100
0100
0000
,
1010
0110
0101
0000
,
0101
0110
1010
0000
,
1100
0110
0011
0000
,
1000
0100
0010
0100
0100
0010
0001
0000
,
1001
1010
1100
1010
,
0001
0100
1000
0000
0010
0000
0100
0000
,
1001
0101
0011
0101
,
1000
0010
0001
0000
0100
0000
0010
0000
,
2100
3100
0012
0013
,
0011
0000
1100
0000
0120
0100
0031
0000
,
1100
0000
0011
0000
0210
0010
1300
0000
,
1000
0101
0110
0120
,
2000
3000
0002
0033
,
2000
0100
3100
0000
0020
0001
0031
1000
,
2000
0001
3002
0100
0203
0010
0310
1000
,
0001
0001
1000
0010
2000
0000
3000
0000
,
0000
0101
0000
0010
0001
0010
1100
0000
,
0011
0010
0000
0110
0100
0000
1001
0001
,
0000
1000
0010
1000
0100
1000
0010
1000
,
0100
0000
0010
0000
0001
0010
0100
0000
,
2000
0001
3002
0010
0023
0100
0130
2000
,
0001
3001
1000
0100
0100
0000
1000
0001
,
0002
1000
2003
0100
3200
0010
0310
0002
,
1000
1003
0010
0100
0010
0000
0110
0000
,
0000
0000
0010
0001
0100
1000
1000
0000
,
0001
0010
1000
1000
0000
0000
0100
0100
,
1000
0100
0001
0000
0000
0010
0100
0010
,
0011
0010
0001
0010
1100
0100
0010
0000
,
1000
0010
0001
1010
,
1000
0010
0001
0000
0100
0000
0010
0000
,
0001
0100
1000
0101
,
0001
0100
1000
0000
0010
0000
0100
0000
,
0011
0000
0110
0000
1100
1000
0100
0000
,
1100
0000
0110
0000
0011
0001
0010
0000
,
0101
0110
1010
0010
,
0001
0100
0010
0100
0100
0010
1000
0001
,
1000
0100
1000
0100
0011
0010
0011
0000
,
0001
0100
0010
0100
1000
0100
0010
0000
,
0001
0010
0001
0010
1100
0100
1100
0000
,
1000
0010
0100
0010
0001
0010
0100
0000
,
0012
0010
0013
0000
2100
0100
3100
0000
,
1010
1000
0100
0001
0100
0000
0100
0000
,
1010
0000
0101
0001
0010
1000
0010
0001
,
0000
0001
0100
0000
0000
0000
0000
0000
;
