#TITLE:the beat;
#ARTIST:Sparky;
#BANNER:the beat.png;
#BACKGROUND:the beat-bg.png;
#CDTITLE:./CDTITLES/Dance Dance Revolution HOTTEST PARTY.png;
#MUSIC:the beat.ogg;
#SAMPLESTART:45.977;
#SAMPLELENGTH:15;
#DISPLAYBPM:140;
#BPMS:0=139.896;

//---------------dance-single - ----------------
#NOTES:
     dance-single:
     :
     Beginner:
     2:
     :
0000
0000
0000
0000
,
0000
0000
0000
0000
,
0000
0000
0000
0000
,
0000
0000
0000
0000
,
0000
0000
0000
0000
,
0000
0000
0000
0000
,
1001
0000
0000
0000
,
0001
0000
0000
0000
,
1001
0000
0000
0000
,
1000
0000
0000
0000
,
0010
0000
0010
0000
,
0010
0000
0000
0000
,
0100
0000
0100
0000
,
0100
0000
0000
0000
,
0001
0000
0001
0000
,
0001
0000
0000
0000
,
1000
0000
1000
0000
,
1000
0000
0000
0000
,
0100
0100
0000
0100
,
0000
0100
0000
0000
,
0010
0010
0000
0010
,
0000
0010
0000
0000
,
0001
0001
0000
0001
,
0000
0001
0000
0000
,
1000
1000
0000
1000
,
0000
1000
0000
1000
,
2000
0000
0000
3000
,
1000
0000
0001
0000
,
1000
0000
0000
0000
,
0010
0000
0100
0000
,
0010
0000
0000
0000
,
1000
0000
0001
0000
,
1000
0000
0000
0000
,
0100
0000
0010
0000
,
0100
0000
0000
0000
,
0001
0000
0001
0000
,
0001
0000
0001
0000
,
1000
0000
1000
0000
,
1000
0000
1000
0000
,
0100
0100
0000
0100
,
0000
0100
0000
0100
,
0000
0010
0000
0010
,
0000
0010
0000
0000
,
0001
0000
0001
0000
,
1000
0000
1000
0000
,
0010
0000
0010
0000
,
0100
0000
0100
0000
,
0200
0000
0000
0300
,
0100
0000
0010
0000
,
0100
0000
0010
0000
,
1000
0000
0001
0000
,
2000
0000
0000
3000
,
1000
0000
0001
0000
,
1000
0000
0001
0000
,
0010
0000
0100
0000
,
0010
0000
0000
0000
,
0001
0000
0000
0000
,
1001
0000
0000
0000
,
0010
0000
0000
0000
,
0100
0000
0110
0000
;

//---------------dance-single - ----------------
#NOTES:
     dance-single:
     :
     Easy:
     4:
     :
0000
0000
0000
0000
,
0000
0000
0000
0000
,
0000
0000
0000
0000
,
0000
0000
0000
0000
,
0000
0000
0000
0000
,
0000
0000
0000
0000
,
1000
0000
0001
0000
,
0100
0000
0000
0000
,
0010
0000
0100
0000
,
1000
0000
1001
0000
,
0001
0001
1000
1000
,
0010
0010
0200
0300
,
0110
0000
1001
0000
,
0100
0010
0110
0000
,
0010
0010
0100
0100
,
0001
0001
2000
3000
,
1001
0000
0110
0000
,
0010
0100
0110
0000
,
0010
1000
0001
0100
,
0010
1000
0001
0000
,
0010
0001
1000
0100
,
0010
0001
1000
0000
,
0001
1000
0100
0001
,
0100
1000
0001
0000
,
0020
0030
0200
0300
,
0020
0030
0100
0000
,
2002
0000
0000
3003
,
1000
0001
1000
0001
,
0100
0010
1000
0000
,
0001
1000
0001
1000
,
0100
0010
0001
0000
,
0010
0100
0010
0100
,
1000
0001
0010
0000
,
0100
0010
0100
0010
,
0001
1000
0100
0000
,
2000
0000
3100
0000
,
0200
0000
0301
0000
,
0002
0000
0013
0000
,
0020
0000
1030
0000
,
0010
1000
0001
0100
,
0010
1000
0001
0000
,
0010
0001
1000
0100
,
0010
0001
1000
0000
,
0001
1000
0100
0001
,
0100
1000
0001
0000
,
0020
0030
0200
0300
,
0020
0030
0100
0000
,
2002
0000
0000
3003
,
0001
1000
0001
1000
,
0010
0100
0001
0000
,
1000
0001
1000
0001
,
0010
0100
1000
0000
,
0100
0010
0100
0010
,
0001
1000
0100
0000
,
0010
0100
0010
0100
,
1000
0001
0010
0000
,
2000
3000
1000
0000
,
0002
0003
0001
0000
,
0200
0300
0100
0000
,
0020
0030
0110
0000
;

//---------------dance-single - ----------------
#NOTES:
     dance-single:
     :
     Medium:
     6:
     :
0000
0000
0000
0000
,
0000
0000
0000
0000
,
0000
0000
0000
0000
,
0000
0000
0000
0000
,
0000
0000
0000
0000
,
0000
0000
0000
0000
,
1001
0000
0010
0100
0000
0000
0100
0010
,
0000
0010
0001
0000
1000
0000
0100
0010
,
0000
0010
0100
0000
0000
0001
0100
0000
,
0000
0001
1000
0001
1001
0000
0000
0000
,
0010
1000
0100
0001
,
0010
0001
0100
0000
,
0110
0110
0100
0001
,
1000
1100
0001
0101
,
0010
1000
0100
0000
0010
0000
0100
0000
,
1000
0001
0100
0000
0010
0000
1001
0000
,
0010
0001
0010
0001
0000
0000
0101
0000
,
1000
0010
1000
0010
0000
0000
1100
0000
,
0001
0000
1000
0000
0010
1000
0010
0000
,
1000
0000
0001
0000
0100
0001
0100
0000
,
0020
0030
2000
3000
0200
0300
0002
0003
,
0011
0110
1001
1100
,
1000
0100
0001
0000
0001
0100
1000
0000
,
0002
1003
0110
0000
,
1000
0001
0100
0000
0001
1000
0100
0000
,
1000
0001
0010
0000
0100
0000
0110
0000
,
1001
0000
0110
0000
,
0011
1010
1100
0101
,
0010
1000
0100
0000
1001
0000
0000
0000
,
1010
1100
0101
0011
,
0010
1000
0010
0100
0001
0000
0000
0000
,
1100
0101
0011
1010
,
0100
0001
0010
0000
1001
0000
0000
0000
,
0101
0011
1010
1100
,
0010
0100
0001
0100
1000
0000
0000
0000
,
0002
0203
0320
2030
,
3200
2300
0000
0000
,
3002
2003
3200
0320
,
0032
0023
0230
1300
,
1000
0000
0001
0000
0100
0001
0100
0000
,
0001
0000
1000
0000
0010
1000
0010
0000
,
0200
0300
0002
0003
0020
0030
2000
3000
,
1100
0110
1001
0011
,
0001
0010
1000
0000
1000
0010
0001
0000
,
2000
3001
0110
0000
,
0001
1000
0010
0000
1000
0001
0010
0000
,
0001
1000
0100
0000
0010
0000
0110
0000
,
1001
0000
0110
0000
,
1100
0101
0011
1010
,
0100
0001
0010
0000
1001
0000
0000
0000
,
0101
0011
1010
1100
,
0100
0001
0100
0010
1000
0000
0000
0000
,
0011
1010
1100
0101
,
0010
1000
0100
0000
1001
0000
0000
0000
,
1010
1100
0101
0011
,
0100
1000
0100
0010
0001
0000
0000
0000
,
0020
1030
0002
0103
,
0002
0013
0200
0310
,
2000
3100
0020
0031
,
0020
0130
1001
0000
;

//---------------dance-single - ----------------
#NOTES:
     dance-single:
     :
     Hard:
     9:
     :
0000
0000
0000
0000
,
0000
0000
0000
0000
,
0000
0000
0000
0000
,
0000
0000
0000
0000
,
0000
0000
0000
0000
,
0000
0000
0000
0000
,
1001
0001
0100
0010
0000
1000
0010
0100
,
0000
0001
1000
0100
0010
0100
1000
0001
,
0000
1000
0100
0010
0000
0001
0010
0100
,
0000
1000
0001
0100
0110
0000
0000
0000
,
0010
1000
0100
0001
0100
0010
0001
0100
,
1000
0100
0010
1000
0001
0010
0100
0000
,
0001
0010
0110
0000
1000
0010
0110
0000
,
1010
0000
0011
0000
0110
0100
1100
0000
,
0010
0001
0100
1000
0010
1000
0100
0001
,
0010
0100
1000
0100
0001
0000
0011
0000
,
1001
0100
0010
1000
0100
0000
0011
0000
,
0110
1000
0001
0010
0100
0000
1100
0000
,
0001
0100
1000
0100
0010
1000
0100
0001
,
0010
0100
1000
0010
0100
0001
0100
0000
,
1000
0100
0001
0010
1000
0100
0010
0001
,
0100
0000
0000
0010
1000
0000
0000
0001
0010
0000
0000
0100
1000
0000
0010
0000
,
0001
0010
0100
1000
0100
0001
0010
0100
,
1000
0001
0100
0010
1000
0010
0100
0000
,
0100
0010
1000
0100
1000
0010
0100
0001
,
1100
0000
1000
0100
0001
0000
1100
0000
,
1000
0000
0000
0000
0000
0000
0001
1000
0001
0000
0000
0000
0000
0000
0000
0000
,
0010
0100
1000
0000
0001
0000
1000
0000
0010
0100
0001
0000
1000
0000
0001
0000
,
0010
0100
1000
0001
0010
0110
1001
0000
,
0001
0100
1000
0000
0100
0000
0001
0000
1000
0100
0001
0000
0100
0000
1000
0000
,
0010
0100
0001
0010
0100
0000
1001
0000
,
0010
1000
0001
0000
0010
0000
0100
0000
0010
0001
1000
0000
0010
0000
0100
0000
,
0001
0010
0100
1000
0001
0101
1100
0000
,
1000
0010
0100
0000
1000
0000
0100
0000
0001
0010
0100
0000
0001
0000
0100
0000
,
1000
0000
0010
0000
1000
0000
0100
0000
0010
0000
0001
0000
0100
0010
0100
0010
,
1000
0001
1000
0001
1000
0010
1000
0010
,
1000
0100
1000
0100
0010
0001
0100
1000
,
0001
0010
0001
0010
0001
1000
0001
1000
,
0001
0000
0100
0000
0001
0000
0100
0000
0010
0000
0100
0000
0001
1000
0001
1000
,
0010
0000
1000
0000
0100
0000
0010
0000
0001
0000
0010
0100
0000
1000
0001
0000
,
0100
0010
1000
0001
0010
0000
0110
0000
,
1000
0000
0001
0000
0010
0000
0100
0000
1000
0000
0100
0010
0000
0001
1000
0000
,
0010
0100
0101
0001
1000
0010
0110
0000
,
0100
0000
1000
0000
0100
0000
0001
0000
0010
0000
0100
1000
0000
0001
0010
0001
,
0100
0000
0010
0000
0001
0000
0010
0000
1000
0000
0100
0010
0000
0001
1000
0000
,
0100
0000
0010
0000
1000
0000
0010
0000
0001
0000
0100
0010
0000
1000
0001
1000
,
0100
0000
0010
0000
0001
0000
0100
0000
0010
0000
1000
0100
0000
0010
0001
0000
,
1001
0000
0000
0000
0000
0000
1000
0001
1000
0000
0000
0000
0000
0000
0000
0000
,
0010
1000
0100
0000
1000
0000
0001
0000
0010
0001
0100
0000
0001
0000
1000
0000
,
0100
0000
1000
0000
0010
0000
0001
0000
0010
0000
1000
0001
0000
0001
1000
0000
,
0010
0100
1000
0000
0100
0000
0001
0000
0010
0100
0001
0000
0100
0000
1000
0000
,
0010
0001
0010
0100
0001
0000
1001
0000
,
1000
0100
0010
0000
0100
0000
0001
0000
0100
0010
0001
0000
0100
0000
0010
0000
,
1000
0000
0100
0000
0001
0000
0010
0000
0100
0000
1000
0010
0000
0010
0100
0000
,
0001
0100
0010
0000
0100
0000
1000
0000
0100
0010
1000
0000
0100
0000
0010
0000
,
0001
0100
1000
0010
1000
0000
1001
0000
,
0020
1000
0100
1030
2000
0001
0100
3001
,
0020
0100
0001
0130
0200
1000
0320
0000
,
0032
0100
0100
0103
0200
1000
1000
1300
,
0010
1000
0100
0001
0010
0000
0000
0000
;
