#TITLE:You Spin Me 'Round (Like a Record);
#ARTIST:M.A.N;
#BANNER:You Spin Me 'Round (Like a Record).png;
#BACKGROUND:You Spin Me 'Round (Like a Record)-bg.png;
#CDTITLE:./CDTITLES/Dance Dance Revolution HOTTEST PARTY.png;
#MUSIC:You Spin Me 'Round (Like a Record).ogg;
#SAMPLESTART:32.991;
#SAMPLELENGTH:15;
#DISPLAYBPM:160;
#BPMS:0=159.8,8=160;

//---------------dance-single - ----------------
#NOTES:
     dance-single:
     :
     Beginner:
     2:
     :
0000
0000
0000
0000
,
0000
0000
0000
0000
,
0000
0000
0000
0000
,
0000
0000
0000
0000
,
0000
0000
0000
0000
,
0000
0000
0000
0000
,
1000
0000
0000
0000
,
0001
0000
0001
0000
,
0100
0000
0000
0000
,
1000
0000
1000
0000
,
0100
0000
0000
0000
,
0010
0000
0010
0000
,
0001
0000
0000
0000
,
0010
0000
0010
0000
,
1000
0000
0000
0000
,
0001
0000
0100
0000
,
0001
0000
0000
0000
,
0100
0000
0000
0000
,
0001
0000
0000
0000
,
1000
0000
0100
0000
,
1000
0000
0000
0000
,
0100
0000
0000
0000
,
1000
0000
0000
0000
,
0001
0000
0000
0000
,
0100
0000
0000
0000
,
0010
0000
0010
0000
,
0010
0000
0000
0000
,
1000
0000
0001
0000
,
1000
0000
0000
0000
,
1000
0000
0100
0000
,
1000
0000
0000
0000
,
0001
0000
1000
0000
,
0001
0000
0000
0000
,
0001
0000
0100
0000
,
0002
0000
0000
0003
,
0001
0000
1000
0000
,
0100
0000
0100
0000
,
0100
0000
0100
0000
,
2000
0000
0000
3000
,
1000
0000
0001
0000
,
0100
0000
0100
0000
,
0100
0000
0100
0000
,
0010
0000
0000
0000
,
1000
0000
0100
0000
,
1000
0000
0000
0000
,
1000
0000
0010
0000
,
1000
0000
0000
0000
,
0001
0000
0100
0000
,
0001
0000
0000
0000
,
0001
0000
0010
0000
,
0001
0000
0000
0000
,
0100
0000
0010
0000
,
0100
0000
0000
0000
,
1000
0000
0001
0000
,
1000
0000
0000
0000
,
0001
0000
1000
0000
,
0001
0000
0000
0000
,
0010
0000
0100
0000
,
0010
0000
0000
0000
,
0100
0000
0000
0000
,
1000
0000
0000
0000
,
0001
0000
0000
0000
;

//---------------dance-single - ----------------
#NOTES:
     dance-single:
     :
     Easy:
     3:
     :
0000
0000
0000
0000
,
0000
0000
0000
0000
,
0000
0000
0000
0000
,
0000
0000
0000
0000
,
0000
0000
0000
0000
,
0000
0000
0000
0000
,
1000
0000
1000
0000
,
0001
0000
0100
0000
,
0010
0000
0010
0000
,
1000
0000
0001
0000
,
0010
0010
0010
0000
,
0001
0000
1000
0000
,
0100
0100
0100
0000
,
1000
1000
0001
0001
,
2000
0000
3000
0000
,
0100
0000
0100
0000
,
1000
1000
0000
0000
,
0001
0001
0000
0000
,
0200
0000
0300
0000
,
0010
0000
0010
0000
,
1000
1000
0000
0000
,
0001
0001
0000
0000
,
0010
0000
0010
0010
,
0100
0000
0100
0100
,
1000
0000
1000
1000
,
0001
1000
0001
1000
,
0001
0000
0100
0000
,
1000
0000
0010
0000
,
0001
0000
0100
0000
,
1000
1000
0001
0001
,
1000
0000
0100
0000
,
0001
0000
0010
0000
,
1000
0000
0100
0000
,
0001
0001
1000
1000
,
2000
0000
0000
3000
,
0010
0000
0001
0000
,
0200
0000
0000
0300
,
0000
1000
0100
0001
,
0002
0000
0000
0003
,
0010
0000
1000
0000
,
0200
0000
0000
0300
,
0000
0000
1000
0001
,
0100
0000
1000
0000
,
0010
0000
0001
0000
,
0100
0000
1000
0000
,
0010
0010
0100
0100
,
0010
0000
1000
0000
,
0100
0000
0001
0000
,
0010
0000
1000
0000
,
0100
0100
0010
0010
,
0110
0000
0000
0000
,
1001
0000
0000
0000
,
0110
0000
0000
0000
,
1001
0000
0000
0000
,
0100
0000
0100
0000
,
1000
0000
1000
0000
,
0010
0000
0010
0000
,
0001
0000
0001
0000
,
0100
0000
1000
0000
,
0010
0000
0001
0000
,
0100
0000
0100
0000
,
0010
0000
0010
0000
;

//---------------dance-single - ----------------
#NOTES:
     dance-single:
     :
     Medium:
     6:
     :
0000
0000
0000
0000
,
0000
0000
0000
0000
,
0000
0000
0000
0000
,
0000
0000
0000
0000
,
0000
0000
0000
0000
,
0000
0000
0000
0000
,
0010
0000
0100
0000
,
0001
0000
1000
0000
,
0100
0000
0010
0000
,
1000
0000
0001
0000
,
1000
1001
0001
1001
,
2000
3000
0020
0030
,
0100
0110
0010
0110
,
0200
0300
0002
0003
,
1000
0100
0010
0100
,
1000
0000
0010
0000
0100
0010
0000
0010
,
2000
3000
0200
0300
,
0002
0003
0020
0130
,
1000
0010
0100
0010
,
1000
0000
0100
0000
0010
0100
0000
0100
,
2000
3000
0020
0030
,
0002
0003
0200
0300
,
1000
0100
1000
0000
0010
0000
0000
0000
,
0001
0100
0001
0000
0010
0000
0000
0000
,
0100
1000
0010
0001
,
0011
1010
0011
1010
,
1001
0100
1000
0010
,
0001
0100
0001
0010
,
1000
0000
0100
0001
0100
0000
1000
0000
,
0010
0100
1000
0100
,
0000
0010
0001
0100
,
1000
0010
1000
0100
,
0001
0000
0010
1000
0010
0000
0001
0000
,
0100
0010
0001
0010
,
2002
0000
0000
3000
,
1000
0000
0000
0103
0000
0000
0200
0000
,
0020
0000
0000
0330
,
0000
0001
0010
0100
,
0220
0000
0000
0300
,
0100
0000
0000
0031
0000
0000
0002
0000
,
2000
0000
0000
0000
,
0000
3003
1000
0001
,
1001
0010
0001
0100
,
1000
0010
1000
0100
,
0001
0000
0010
1000
0010
0000
0001
0000
,
0100
0010
0001
0010
,
0000
0100
1000
0010
,
0001
0100
0001
0010
,
1000
0000
0100
0001
0100
0000
1000
0000
,
0010
0100
1000
0100
,
0002
1000
1000
2003
,
0100
0100
0010
3010
,
0002
0100
0100
0100
,
1003
2000
0001
3002
,
0100
1000
1000
0023
,
0031
2000
3100
0020
,
0032
0010
1000
1003
,
0200
0310
2000
3001
,
1001
0000
1100
0000
,
0110
0000
0101
0000
,
1001
0000
0110
0000
,
1001
0000
0110
0000
;

//---------------dance-single - ----------------
#NOTES:
     dance-single:
     :
     Hard:
     8:
     :
0000
0000
0000
0000
,
0000
0000
0000
0000
,
0000
0000
0000
0000
,
0000
0000
0000
0000
,
0000
0000
0000
0000
,
0000
0000
0000
0000
,
1000
1100
1000
1100
,
0010
0001
0100
1000
,
0001
0101
0001
0101
,
0010
0000
1000
0000
0100
0001
0010
0000
,
1001
0010
1000
0000
0001
0010
0001
0000
,
0100
0001
0010
0000
0100
1000
0001
0000
,
1000
0100
1000
0000
0001
0100
0001
0000
,
0010
0001
0100
0000
0010
1000
0100
1000
,
0200
0000
0010
0310
,
0010
0100
1000
0001
1000
0100
0000
0020
,
0000
0001
0000
0001
0000
1000
0000
1000
,
0000
0001
0000
0001
0000
0100
0030
0100
,
2000
0000
0001
3001
,
0001
1000
0001
0100
0010
1000
0000
0200
,
0000
0001
0000
0001
0000
1000
0000
1000
,
0000
0001
0000
0001
0000
0010
0300
0010
,
0100
1000
0010
0001
0010
1000
0100
0000
,
0010
0001
0100
1000
0100
0001
0010
0000
,
0100
1000
0010
0100
0001
1000
0001
0000
,
1001
0110
1100
0101
,
1001
0020
2030
3200
,
0301
0000
0100
0000
1000
0010
0100
0000
,
0001
0000
1000
0001
0100
1000
0100
0001
,
0011
0101
1100
1010
,
1001
0200
0302
0023
,
1030
0000
0010
0000
0001
0100
0010
0000
,
1000
0000
0001
1000
0010
0001
0010
1000
,
1100
1010
0011
0101
,
0010
1000
0100
1000
0010
1000
0100
1000
,
0002
0000
0103
0020
0000
1030
0002
0000
,
0013
0001
1001
0000
1000
0100
1001
0000
,
0010
1000
1001
0000
0001
0100
1001
0000
,
0100
0001
0010
0001
0100
0001
0010
0001
,
2000
0000
3010
0200
0000
0301
2000
0000
,
3001
1000
0101
0000
0001
0010
1100
0000
,
0100
1000
0010
1000
0001
0010
0001
0100
,
1001
0200
0302
0023
,
1030
0000
0010
0000
0001
0100
0010
0000
,
1000
0000
0001
1000
0010
0001
0010
1000
,
1100
1010
0011
0101
,
1001
0020
2030
3200
,
0301
0000
0100
0000
1000
0010
0100
0000
,
0001
0000
1000
0001
0100
1000
0100
0001
,
0011
0101
1100
1010
,
1001
1100
0101
1100
,
1010
0011
0101
1100
,
1001
0101
1100
0101
,
0011
1010
1100
0101
,
0010
0001
0100
0000
0010
1000
0100
0000
,
0001
0100
1000
0000
0001
0010
1000
0000
,
0100
1000
0010
0000
0100
0001
0010
0000
,
1000
0010
0001
0000
1000
0100
0001
0000
,
0010
1000
0010
1000
0001
0100
0001
0100
,
0001
0010
0001
0010
0100
1000
0100
1000
,
0010
0001
0010
1000
0010
0001
0010
1000
,
0100
0000
0010
0000
0100
0000
1000
0000
0001
0000
0100
0000
0010
0000
1000
0001
;
