#TITLE:Yo, Excuse Me Miss;
#ARTIST:Smooth-1;
#BANNER:Yo, Excuse Me Miss.png;
#BACKGROUND:Yo, Excuse Me Miss-bg.png;
#CDTITLE:./CDTITLES/Dance Dance Revolution HOTTEST PARTY.png;
#MUSIC:Yo, Excuse Me Miss.ogg;
#SAMPLESTART:49.034;
#SAMPLELENGTH:15;
#DISPLAYBPM:88;
#BPMS:0=87.88,8=88;

//---------------dance-single - ----------------
#NOTES:
     dance-single:
     :
     Beginner:
     1:
     :
0000
0000
0000
0000
,
0000
0000
0000
0000
,
0000
0000
0000
0000
,
0000
0000
0000
0000
,
0000
0000
0000
0000
,
0000
0000
0000
0100
,
0010
0000
0000
0000
,
0001
0000
0000
0000
,
0001
0000
0000
0000
,
0010
0000
0010
0000
,
1000
0000
0000
0000
,
1000
0000
0000
0000
,
1000
0000
0000
0000
,
0100
0000
0100
0000
,
0001
0000
1000
0000
,
1000
0000
0001
0000
,
0001
0001
1000
1000
,
0001
0001
1000
0000
,
2000
3000
0000
0000
,
0001
0000
1000
0000
,
0001
0000
1000
0000
,
1000
1000
0001
0000
,
0002
0003
0000
0000
,
1000
0000
0001
0000
,
1000
0000
0010
0000
,
0000
1000
0010
0000
,
1000
1000
0000
0110
,
0000
0000
0000
1001
,
0000
0010
0000
0010
,
0000
0100
0000
0100
,
0000
0000
0000
0110
,
0000
0000
0000
1001
,
0000
0100
0000
0100
,
0000
0010
0000
0010
,
0000
0001
0000
1000
,
0000
1000
1000
0000
,
0200
0000
0000
0300
;

//---------------dance-single - ----------------
#NOTES:
     dance-single:
     :
     Easy:
     2:
     :
0000
0000
0000
0000
,
0000
0000
0000
0000
,
0000
0000
0000
0000
,
0000
0000
0000
0000
,
0000
0000
0000
0000
,
0000
0000
0000
0200
,
1300
1000
0000
0000
,
0010
0000
0000
0000
,
1000
0000
0000
0000
,
0000
1000
0000
1000
0000
0001
0000
0001
,
1000
0000
0000
0000
,
0010
0000
0000
0000
,
0001
0000
0000
0000
,
0000
0001
0000
1000
0000
1000
0000
0001
,
1000
0000
0020
0030
,
0001
0001
0020
0030
,
1000
0000
0001
0000
,
0000
1000
0000
0100
0000
0010
0000
0100
,
0002
0003
0000
0000
,
1000
0000
0001
0000
,
1000
0000
0001
0000
,
0000
0001
0000
0010
0000
0100
0000
0001
,
2000
3000
0000
0000
,
0001
0000
1000
0000
,
0001
0000
0100
0000
,
0000
0010
0000
0001
2000
0000
3000
0000
,
0000
0001
1001
0110
,
0000
1000
0001
1001
,
0000
0100
0000
0010
,
0000
0100
0000
0010
,
0000
1000
1001
0110
,
0000
0001
1000
1001
,
0000
0100
0000
0010
,
0000
0100
0000
0010
,
0000
1000
0000
0001
,
0001
0000
0000
0000
;

//---------------dance-single - ----------------
#NOTES:
     dance-single:
     :
     Medium:
     4:
     :
0000
0000
0000
0000
,
0000
0000
0000
0000
,
0000
0000
0000
0000
,
0000
0000
0000
0000
,
0000
0000
0000
0000
,
1000
1000
1000
0200
,
0302
0003
0010
0000
,
0001
1000
0010
0000
,
0001
0000
0010
0000
,
0001
0010
0100
0000
,
2000
3000
0010
0000
,
1000
0001
0010
0000
,
1000
0000
0000
0000
0010
0000
0000
0000
0100
0000
0000
0000
0000
0000
0000
0010
,
0010
0000
0000
1000
1000
0000
0000
0100
0100
0000
0000
0001
0001
0000
0000
0000
,
0100
0000
0020
0030
,
0100
0000
0020
0030
,
0000
0000
2000
0000
3000
0000
0002
0003
,
1000
0100
0000
0100
0000
0010
0001
0011
,
0001
0000
0010
0000
,
0001
1000
0010
0000
,
0001
0100
0010
0000
,
0100
0000
0010
0000
0001
0000
0010
0100
,
0001
0000
0100
1000
,
0001
0000
0100
1000
,
0001
0000
0100
0001
,
0010
0000
0100
0000
1000
0010
0100
0001
,
0010
0100
0010
0101
,
0010
0100
0010
1100
,
0001
1000
0010
0000
0001
1000
0110
0000
,
1000
0001
0100
0000
1000
0001
0110
0000
,
0100
0010
0100
1010
,
0100
0010
0100
0011
,
1000
0001
0100
0000
1000
0001
0110
0000
,
0001
1000
0010
0000
0001
1000
0110
0000
,
0001
0001
0001
1001
,
1000
0000
0000
0000
1000
0000
0000
0000
1000
0000
1000
0000
0010
1000
0001
0200
,
0000
0000
0000
0300
;

//---------------dance-single - ----------------
#NOTES:
     dance-single:
     :
     Hard:
     6:
     :
0000
0000
0000
0000
,
0000
0000
0000
0000
,
0000
0000
0000
0000
,
0000
0000
0000
0000
0000
0000
0000
0000
0000
0000
0000
0000
0000
0000
0000
1000
,
0000
1000
0000
0000
,
0001
0000
0000
0001
0000
0000
0001
0000
0000
1000
0000
0000
2000
0000
0000
0000
,
3001
0000
0011
0000
1000
0001
0100
0000
,
0001
1000
0010
0000
1000
0001
0100
0000
,
1000
0010
0001
0010
,
1000
0001
0010
1000
0010
0001
0100
0000
,
1000
0000
1100
0000
0001
1000
0010
0000
,
1000
0001
0100
0000
0001
1000
0010
0000
,
0001
0101
1000
0100
,
0001
0000
1000
0000
0100
0000
0001
0000
0100
0000
1000
0000
0001
0010
0000
0000
,
0000
0010
0100
1000
0200
1000
0001
0010
,
0300
0100
0010
0001
0020
0001
1000
0100
,
0130
0000
0100
1000
0000
0000
0010
0100
,
0001
0000
1000
0001
0010
0000
0100
1000
,
0020
1000
0030
0000
1000
0001
0100
1000
,
0001
0000
1000
0001
0000
0000
0000
0000
1000
0000
0001
0000
0101
0000
0001
0000
,
1002
0000
0010
0000
0100
0100
0013
0000
,
1001
0001
0010
0100
0100
1000
0010
0001
,
0200
0001
0300
0000
0001
1000
0010
0001
,
1000
0000
0001
1000
0000
0000
0000
0000
0001
0000
1000
0000
1010
0000
1000
0000
,
2001
0000
0100
0000
0010
0010
3100
0000
,
1001
0001
0100
0010
0010
1000
0100
0011
,
0010
0000
0001
0001
0000
0000
0100
0000
1000
0000
0010
0000
0011
0000
0000
0000
,
0010
0000
1000
1000
0000
0000
0100
0000
0001
0000
0000
0000
0001
0000
0000
0000
,
0000
1000
1000
0001
0001
0000
1000
0000
0100
0000
0010
0000
0001
0000
0100
0000
,
1000
0001
0010
0100
0010
0100
1000
0001
,
0100
0000
1000
1000
0000
0000
0010
0000
0001
0000
0100
0000
1100
0000
0000
0000
,
0100
0000
0001
0001
0000
0000
0010
0000
1000
0000
0000
0000
1000
0000
0000
0000
,
0000
0001
0001
1000
1000
0000
0001
0000
0010
0000
0100
0000
1000
0000
0010
0000
,
0001
1000
0100
0010
0100
0010
0001
1000
,
0000
0101
0000
1010
0001
0010
0100
1000
,
0001
0000
1000
0000
0010
0000
0000
0000
0100
0000
0010
0000
0001
0000
0010
0200
,
0000
0000
0300
0000
;
