#TITLE:Too Little, Too Late;
#ARTIST:Okokoro;
#BANNER:Too Little, Too Late.png;
#BACKGROUND:Too Little, Too Late-bg.png;
#CDTITLE:./CDTITLES/Dance Dance Revolution HOTTEST PARTY.png;
#MUSIC:Too Little, Too Late.ogg;
#SAMPLESTART:35.062;
#SAMPLELENGTH:15;
#DISPLAYBPM:83:166;
#BPMS:0=82.99,4=82.978,48=166,80=82.1,81=82.99,128=165.957;

//---------------dance-single - ----------------
#NOTES:
     dance-single:
     :
     Beginner:
     2:
     :
0000
0000
0000
0000
,
0000
0000
0000
0000
,
0000
0000
0000
0000
,
0000
0000
0000
0000
,
0001
0000
0001
1000
,
0010
0000
0100
0000
,
0001
0000
0001
0000
,
0200
0000
0000
0300
,
1000
0000
0000
0001
0000
0000
0000
0000
,
0100
0000
0010
0000
,
0001
0000
0000
1000
0000
0000
0000
0000
,
1001
0000
0220
0000
,
0330
0000
0000
0000
,
1001
0000
0000
0000
,
1001
0000
0000
0000
,
1000
0000
0001
0000
,
0001
0000
1000
0000
,
1001
0000
0000
0000
,
0001
0000
1000
0000
,
0002
0000
0000
0003
,
0000
0000
2000
3000
,
0001
0000
0002
0003
,
0000
0000
1000
0001
,
2000
0000
0000
3000
,
0001
0000
0002
0003
,
1000
0000
2000
3000
,
0010
0000
0020
0030
,
0200
0000
0000
0300
,
0020
0000
0000
0030
,
2000
0000
0000
3000
,
0002
0000
0000
0000
,
0003
0000
2002
3003
,
0000
0000
0000
0000
,
1001
0000
0000
0000
,
1001
0000
0000
0000
,
0001
0000
1000
0000
,
1000
0000
0001
0000
,
1001
0000
1000
0000
,
1000
0000
0010
0000
,
2000
0000
3000
0000
,
0000
0000
1000
0000
,
0002
0000
0003
0000
,
2000
0000
3000
0000
,
0000
0000
0001
0000
,
2000
0000
3000
0000
;

//---------------dance-single - ----------------
#NOTES:
     dance-single:
     :
     Easy:
     3:
     :
0000
0000
0000
0000
,
0000
0000
0000
0000
,
0000
0000
0000
0000
,
0000
0000
0000
0000
,
0001
0000
0001
0000
,
0010
0000
0000
0000
0100
0100
0000
0000
,
0001
0000
0001
1000
,
0200
0000
0000
0300
,
1000
0000
0000
0100
0000
0000
0001
0000
,
0100
1000
0100
0000
0010
0001
0010
0000
,
0001
0000
0000
0010
0000
0000
1000
0000
,
0001
1000
0220
0000
,
0330
0000
0010
0000
,
1001
0000
1000
0000
,
1001
0000
0001
0000
,
1000
0000
0000
0001
,
0001
0000
0100
0000
,
1001
0000
1000
0000
,
1000
1000
1000
1000
,
0002
0000
0000
0003
,
0000
0000
1000
1000
2000
0000
3000
0000
,
0000
0000
0001
0001
0002
0000
0003
0000
,
0000
0100
1000
0001
,
2000
0000
0000
3000
,
0000
0000
0001
1000
0002
0000
0003
0000
,
0000
0000
1000
0001
2000
0000
3000
0000
,
0000
0000
0010
0100
0020
0000
0030
0000
,
0200
0000
0000
0300
,
0020
0000
0000
0000
,
2030
0000
0000
0000
,
3002
0000
0000
0000
,
1003
0000
2002
0000
,
3003
0000
0100
0000
,
1001
0000
0001
0000
,
1001
0000
1000
0000
,
0001
0000
0000
1000
,
1000
0000
0010
0000
,
1001
0000
0001
0000
,
1000
0000
0010
0000
,
2000
0000
0000
3000
,
0200
0000
0000
0300
,
0020
0000
0000
0030
,
0002
0000
0000
0003
,
0020
0000
0000
0030
,
0200
0000
0000
0300
;

//---------------dance-single - ----------------
#NOTES:
     dance-single:
     :
     Medium:
     6:
     :
0000
0000
0000
0000
,
0000
0000
0000
0000
,
0000
0000
0000
0000
,
0000
0000
0000
0000
,
1100
0000
1000
0100
0000
0010
0011
0000
,
0010
0000
0100
0000
1000
0001
1000
0001
,
1000
0000
0100
0100
0000
0010
0001
1000
,
2000
0100
0100
3100
,
0001
0000
0000
0020
0000
0000
0200
0030
0000
0000
0000
0000
0300
0000
0000
0000
,
1000
0100
1000
0010
0100
0001
0010
0100
,
1000
0000
0000
0200
0000
0000
0020
0300
0000
0000
0000
0000
0030
0000
0000
0000
,
0110
1001
2000
0002
,
3003
1000
0100
0000
,
1000
0001
0010
0100
0010
0100
1000
0000
,
1000
0010
0100
0001
,
0010
0000
0100
0000
1000
0000
1000
0001
,
1000
0001
0010
0000
,
0001
1000
0100
0010
0100
0010
0001
0000
,
1001
0100
1001
0100
,
2000
0001
0100
3010
,
1000
0000
1010
0000
0100
0001
1000
0000
,
0100
0000
1000
0100
0010
0001
1001
0000
,
0010
0100
1010
0000
0010
0100
0010
0100
,
0002
0200
0000
0303
,
0001
0000
0010
0000
0100
0010
1000
0000
,
0010
0000
0001
0010
0100
1000
1001
0000
,
0100
0000
0001
0000
1000
0010
0110
0000
,
0020
0000
0100
0000
0100
0000
0100
0130
,
2000
0000
0000
3200
0000
0000
0000
0000
,
0320
0000
0000
0000
0000
0000
0000
0032
0000
0000
0000
0000
0000
0000
0000
0000
,
0000
0023
0000
0000
0000
0000
0000
0230
0000
0000
0000
0000
0000
0000
0000
0000
,
2000
0000
3300
0000
2002
0000
0000
3003
,
0000
0001
0010
0000
,
1000
0001
0100
0010
0100
0010
1000
0000
,
0001
0100
0010
1000
,
0100
0000
0010
0000
0001
0000
0001
1000
,
0001
1000
0100
0000
,
0001
1000
0010
0100
0010
0100
0001
0000
,
0100
1000
1010
0000
,
2000
0100
0000
3100
,
0200
0010
0000
0310
,
0020
0000
0001
0000
0000
0001
0031
0000
,
0002
0010
0000
0013
,
0020
0100
0000
0130
,
0200
0000
0000
0300
;

//---------------dance-single - ----------------
#NOTES:
     dance-single:
     :
     Hard:
     9:
     :
0000
0000
0000
0000
,
0000
0000
0000
0000
,
0000
0000
0000
0000
,
0000
0000
0000
0000
,
1000
0100
1100
0100
1000
0100
1001
0001
,
1000
0000
0100
0000
1000
0000
0010
0000
1000
0001
1000
0000
1001
0000
1000
0000
,
0001
0010
0011
0010
0001
0100
1001
0100
,
0001
0000
1000
0000
1001
0000
0000
0001
0010
0100
0010
0001
0010
0100
1000
1000
,
0100
0000
0100
0010
0000
0010
0002
0000
0000
0000
1000
0000
1003
0000
0000
1000
,
0100
0010
0010
0100
1000
0000
0000
0001
0001
0010
0100
0100
0010
0001
0000
0001
,
0010
0000
0010
0100
0000
0100
2000
0000
0000
0000
0001
0000
3001
0000
0000
0000
,
0110
0000
0010
0000
0110
0000
0000
0000
1001
1000
0001
0000
1000
0001
1000
0001
,
1000
0000
1000
0001
1000
0001
0010
0000
,
0100
0001
0010
0001
0100
0001
0101
0000
,
0100
1000
0010
1000
0100
1000
1100
0000
,
0011
0000
1100
0000
0001
0010
0100
0010
,
0001
0010
1000
0000
1000
0010
0001
0000
,
0001
0100
1000
0100
1100
0000
0011
0000
,
1010
0101
1010
0101
,
1000
0000
0010
0000
0001
0000
0010
0000
0100
0001
0100
0000
0010
1000
0010
0000
,
0001
0000
0000
0000
0010
0000
1100
0000
0100
0000
0100
0000
0011
0000
0010
1000
,
0100
0000
0010
0000
1001
0000
0100
0000
0010
0100
0010
0000
1100
0000
0001
0010
,
0101
0000
0000
0000
1010
0000
0100
0000
0001
0010
0100
0000
1010
0000
0000
0000
,
0000
0101
0000
0101
0000
0110
0000
0110
0000
1010
0000
2002
0000
0000
0000
0000
,
3003
0000
0010
0100
1000
0000
1100
0000
0100
0000
0010
0000
0011
0000
0100
0001
,
0010
0000
0100
0000
1001
0000
0010
0000
0100
0010
0100
0000
0011
0000
1000
0100
,
0010
0000
0100
0000
0110
0000
0010
0000
0001
1000
0010
0000
1010
0000
0100
0001
,
1000
0000
0001
0000
1000
0000
0001
0000
0100
0010
0100
0010
0100
0010
0100
0010
,
0200
0000
0000
0320
0000
0000
0000
0000
,
2030
0000
3020
0000
,
0000
0032
0000
0000
0000
0000
0000
0023
0000
0000
0000
0000
0000
0000
0030
0000
,
2100
0000
0000
0001
3001
0000
0000
0000
0110
0100
0010
0000
0100
0010
0100
0010
,
0100
0000
0001
1000
0001
1000
0100
0000
,
0010
1000
0100
1000
0010
1000
1000
0000
,
0010
0001
0100
0001
0010
0001
0001
0000
,
1100
0000
0011
0000
1000
0100
0010
0100
,
1000
0100
0001
0100
0001
0100
1000
0000
,
1000
0010
0001
0010
0011
0000
1100
0000
,
0001
0100
0001
0010
0001
0100
0001
1000
,
1000
0100
1000
0010
0100
0001
0010
0001
,
1000
0010
1010
0000
1000
0000
0101
0000
,
0100
0010
0110
0000
0100
0001
0101
0000
,
0010
0000
0110
0000
0010
1000
1010
0000
,
0001
0100
0101
0000
0001
0000
1100
0000
,
0010
0100
0110
0000
0010
1000
1010
0000
,
0100
0110
0100
0001
;
