#TITLE:Summertime;
#ARTIST:Eazin';
#BANNER:Summertime.png;
#BACKGROUND:Summertime-bg.png;
#CDTITLE:./CDTITLES/Dance Dance Revolution HOTTEST PARTY.png;
#MUSIC:Summertime.ogg;
#SAMPLESTART:12.427;
#SAMPLELENGTH:15;
#BPMS:0=111;

//---------------dance-single - ----------------
#NOTES:
     dance-single:
     :
     Beginner:
     1:
     :
0000
0000
0000
0000
,
0000
0000
0000
0000
,
0000
0000
0000
0000
,
0000
0000
0000
0000
,
0000
0000
0000
0000
,
0000
0000
0000
0000
,
0000
0001
0000
0001
,
0000
1000
0000
1000
,
0000
1000
0000
1000
,
0000
0001
0000
0001
,
0000
0000
0000
1000
,
0000
0000
0000
1000
,
0000
0000
0000
1000
,
0000
0000
1000
0000
,
0100
0000
0000
0000
,
0010
0000
0010
0000
,
0000
0001
0000
1000
,
0000
1000
0000
0001
,
0000
0010
0000
0001
,
0000
0010
0000
0001
,
0000
1000
0000
0000
,
0000
0010
0000
1001
,
0000
0001
0000
0001
,
0000
1000
0000
1000
,
0000
1000
0000
1000
,
0000
0001
0000
0001
,
0000
0001
0000
0001
,
0000
1000
0000
1000
,
0000
1000
0000
1000
,
0000
0110
0000
1001
,
0000
0001
0000
0000
,
0000
1000
0000
0000
,
0000
1000
0000
0010
,
0000
0000
0100
0100
,
0000
0010
0000
0010
,
0000
0100
0000
0100
,
0000
0010
0000
1000
,
0000
0000
0110
0000
,
1001
0000
0000
0001
,
0000
1000
0000
1000
,
0000
1000
0000
1000
,
0000
0001
0000
0001
,
0000
0001
0000
0001
,
0000
1000
0000
1000
,
0000
1000
0000
1000
,
0000
0001
0000
0001
,
0000
0001
0000
1000
;

//---------------dance-single - ----------------
#NOTES:
     dance-single:
     :
     Easy:
     3:
     :
0000
0000
0000
0000
,
0000
0000
0000
0000
,
0000
0000
0000
0000
,
0000
0000
0000
0000
,
0000
0000
0000
0000
,
0000
0001
0000
0001
,
0000
1000
0000
1000
,
0010
0001
0000
0001
,
0100
0001
0000
0001
,
0000
1000
0100
1000
,
0000
0100
1000
0001
,
0000
0010
1000
0001
,
0000
0001
1000
0001
,
0000
1000
0001
1000
,
0000
1000
0010
1000
,
0000
1000
0100
1000
,
0000
1000
0001
0100
,
0000
0001
1000
0100
,
0000
0100
0100
0001
,
0000
0100
1000
1000
,
0001
0100
1000
0000
,
0001
0100
1000
0001
,
1001
0000
0000
1000
,
0010
0001
0000
0001
,
0100
0001
0000
0001
,
0000
1000
0100
1000
,
0000
1000
0000
1000
,
0010
0001
0000
0001
,
0100
0001
0000
0001
,
0010
1000
0000
1001
,
0000
1000
0001
1000
,
0000
0001
1000
0001
,
0000
0001
0100
0100
,
0000
1000
0010
0010
,
0000
1000
1000
0010
,
0000
0001
0001
0100
,
0010
0000
0000
0000
,
1010
1010
1010
0000
,
1001
0000
0000
0001
,
0100
1000
0000
1000
,
0010
1000
0000
1000
,
0000
0001
0010
0001
,
0000
0001
0000
0001
,
0100
1000
0000
1000
,
0010
1000
0000
1000
,
0000
0000
0110
1001
;

//---------------dance-single - ----------------
#NOTES:
     dance-single:
     :
     Medium:
     4:
     :
0000
0000
0000
0000
,
0000
0000
0000
0000
,
0000
0000
0000
0000
,
0000
0000
0000
0000
,
0000
0000
0000
0000
,
0000
1000
0001
0000
0010
0000
1001
0000
,
0001
0001
0001
0001
,
0100
0000
0000
0000
0010
0001
1000
0000
,
1000
1000
1000
1000
,
0100
0000
0000
0000
0000
0000
0001
0100
,
1000
0010
0100
0001
0000
1000
0000
0001
,
1000
0000
0100
0010
0001
0000
1000
0000
,
0001
0001
1000
1000
0001
0001
1000
0010
,
0100
0001
1000
0010
1000
0010
0100
0001
,
1000
1000
0001
0000
0100
0010
0001
1000
,
0001
0010
0100
1000
0001
0000
1000
0000
,
0000
0000
0001
0001
1000
0100
0010
0000
,
1000
1000
0001
0010
0100
1000
0001
0000
,
0010
0000
1000
0001
0000
0000
0110
0000
,
0010
1000
0010
1000
0001
0100
0001
0000
,
0010
0010
1000
1000
,
0001
0100
0010
1000
0100
0010
0001
0000
,
1001
0001
0001
0001
,
0100
0000
0000
0000
0010
1000
0001
0000
,
1000
1000
1000
1000
,
0010
0000
0000
0000
0100
0001
1000
0000
,
1001
1000
1000
1000
,
0010
0000
0000
0000
0100
1000
0001
0000
,
0001
0001
0001
0001
,
0010
0000
0010
0100
,
1000
0000
0000
0000
1000
1000
0001
0000
,
0001
0000
1000
0000
0001
0001
1000
0000
,
0000
0000
1000
0100
0010
0001
0010
0100
,
1000
0100
0010
0001
1000
0000
0100
0010
,
0000
0000
0001
0000
0001
1000
0100
0010
,
1000
0100
0010
0100
1000
0000
0010
0000
,
1000
1000
1000
1000
,
0101
0101
0101
0101
0101
0000
0010
0000
,
1001
0001
0001
0001
,
0100
0000
1000
0000
0010
0001
1000
0000
,
1000
1000
1000
1000
,
0100
0000
0001
0000
0010
1000
0001
0000
,
1001
1000
1000
1000
,
0010
0000
0001
0000
0100
1000
0001
0000
,
0001
0001
0001
0001
,
0100
0000
0001
0000
0010
1000
0001
0000
,
1000
0000
0000
0000
;

//---------------dance-single - ----------------
#NOTES:
     dance-single:
     :
     Hard:
     7:
     :
0000
0000
0000
0000
,
0000
0000
0000
0000
,
0000
0000
0000
0000
,
0000
0000
0000
0000
,
0000
0000
0000
0000
,
0000
0000
1100
0101
,
1001
0000
0001
0100
1000
0100
0001
0100
,
1010
0000
0001
0000
1010
0100
0001
0000
,
1000
0000
0001
0010
1000
0010
0001
0010
,
1100
0000
0001
0000
1010
0000
0001
0100
,
0001
0010
0100
1000
0000
0001
0000
1000
,
0001
0010
0100
1000
1000
0001
0001
0000
,
0010
0010
0100
0100
0010
1000
0010
0001
,
0100
0100
0010
0010
0100
0001
0100
1000
,
0001
1000
0100
1000
,
1000
0000
0001
0000
0010
1000
0001
0000
,
0000
0000
1000
1000
0001
0100
0010
0000
,
0001
0001
1000
1000
0001
0100
0010
0100
,
0000
0000
0010
0001
0010
0100
0010
0000
,
0100
0001
0100
1000
0100
0010
0110
0000
,
1000
0100
0010
0001
0001
0010
0100
1000
,
0100
0001
1001
0110
,
1001
0000
0001
0100
1010
0100
0001
0100
,
0101
0000
1000
0000
0101
0010
1000
0000
,
1000
0000
0001
0010
1100
0010
0001
0010
,
0011
1000
0101
1000
,
1001
0000
1000
0010
0101
0010
1000
0010
,
1010
0000
0001
0000
1010
0100
0001
0000
,
0001
0000
1000
0100
0011
0100
1000
0100
,
0011
0000
1000
0000
0101
1000
0100
0010
,
0001
0000
0100
0000
0001
0001
1000
0000
,
1000
0010
0010
1000
1000
0001
0001
0100
,
0000
0000
0001
0100
0010
1000
0010
0100
,
0001
0100
0001
0100
0010
1000
0010
0100
,
0000
0000
1000
0010
1000
0001
0100
0010
,
0001
0100
0001
1000
0001
1000
0010
0100
,
0001
0100
0010
1000
,
1100
1100
1100
1100
0011
0000
1100
0000
,
1001
0000
1000
0110
0001
0110
1000
0100
,
0011
0000
1000
0000
0011
0100
1000
0000
,
0001
0000
1000
0110
0100
0110
1000
0010
,
0101
1000
0011
1000
,
1001
0000
0001
0110
1000
0110
0001
0010
,
1100
0000
0001
0000
1100
0010
0001
0000
,
1000
0000
0001
0110
0010
0110
0001
0010
,
1100
0000
0001
0010
0100
0001
0100
0010
,
1000
1000
0000
0000
;
