#TITLE:Rhythm Is a Dancer;
#ARTIST:SPOTS;
#BANNER:Rhythm Is a Dancer.png;
#BACKGROUND:Rhythm Is a Dancer-bg.png;
#CDTITLE:./CDTITLES/Dance Dance Revolution HOTTEST PARTY.png;
#MUSIC:Rhythm Is A Dancer.ogg;
#SAMPLESTART:34.515;
#SAMPLELENGTH:15;
#DISPLAYBPM:153;
#BPMS:0=152.76,8=153;
#STOPS:184=0.784;

//---------------dance-single - ----------------
#NOTES:
     dance-single:
     :
     Beginner:
     1:
     :
0000
0000
0000
0000
,
0000
0000
0000
0000
,
0000
0000
0000
0000
,
0000
0000
0000
0000
,
0000
0000
0000
0000
,
0000
0000
0000
0000
,
0010
0000
0000
0000
,
0010
0000
0000
0000
,
0100
0000
0000
0000
,
0100
0000
0000
0000
,
1000
0000
0000
0000
,
1000
0000
0000
0000
,
0001
0000
0000
0000
,
0001
0000
0000
0000
,
1000
0000
0000
0000
,
1001
0000
0000
0000
,
0001
0000
0000
0000
,
1001
0000
0000
0000
,
0010
0000
0000
0000
,
0110
0000
0000
0000
,
0100
0000
0000
0000
,
0110
0000
0000
0000
,
0010
0010
0000
1000
,
0000
1000
0000
1000
,
0000
0001
0000
0001
,
0001
0000
0000
0000
,
1000
0000
1000
0000
,
0001
0000
0001
0000
,
1000
0000
1000
0000
,
1000
0000
0000
0000
,
0010
0000
0000
0010
,
0010
0000
0000
0000
,
1000
0000
0000
1000
,
1000
0000
0000
0000
,
0001
0000
0000
0001
,
0001
0000
0000
0000
,
0100
0000
0100
0000
,
0200
0000
0000
0300
,
0100
0000
0100
0000
,
0100
0000
0000
0000
,
0010
0000
0010
0000
,
0010
0000
0000
0000
,
1000
0000
1000
0000
,
1000
0000
0000
0000
,
0001
0000
0001
0000
,
0001
0000
0000
0000
,
0000
0100
0000
0100
,
0000
0001
0000
0001
,
0000
1000
1000
0000
,
0000
0000
0001
0000
,
0001
0000
1000
0000
,
1000
0000
0001
0000
,
0001
0000
0001
0000
,
0000
0000
0100
0000
,
0100
0100
0000
0010
,
0000
0010
0000
0100
,
0000
0100
0000
0000
,
0000
0000
0001
0000
,
0001
0001
0000
1000
,
0000
1000
0000
0001
,
0000
0001
0000
0000
,
0000
0000
0001
0000
,
0000
0000
1000
0000
,
0000
0000
1000
0000
,
0000
0000
0000
0000
,
0000
1001
0000
0000
;

//---------------dance-single - ----------------
#NOTES:
     dance-single:
     :
     Easy:
     4:
     :
0000
0000
0000
0000
,
0000
0000
0000
0000
,
0000
0000
0000
0000
,
0000
0000
0000
0000
,
0000
0000
0000
0000
,
0000
0000
0000
0000
,
0010
0000
0001
0000
,
1000
0100
0010
0000
,
0001
0000
1000
0000
,
0001
0100
0010
0000
,
0100
0000
0010
0000
,
0100
0000
0010
0000
,
0010
0000
0100
0000
,
0010
1000
0001
1000
,
1001
0000
0010
0000
,
0001
0000
1000
0000
,
0001
0000
0100
0000
,
0010
0000
0100
0000
,
0001
0000
1000
0000
,
0001
0000
0100
0000
,
0001
0000
1000
0000
,
0001
0100
0010
0000
,
0010
1000
0100
0000
,
0010
0000
0100
0000
,
1000
0010
1000
0100
,
0020
0000
0000
0030
,
0001
0100
0010
0000
,
0001
0000
1000
0000
,
0010
0000
0100
0001
,
0020
0000
0000
0030
,
0100
0000
0001
0000
,
1000
0001
0010
0000
,
0100
0000
1000
0000
,
0001
1000
0100
0000
,
1000
0000
0001
0000
,
0010
0001
1000
0000
,
0100
1000
0001
0000
,
0210
0000
0000
0300
,
0100
0000
0010
0000
,
0010
1000
0100
0001
,
0100
0000
0100
0000
,
0010
0001
0100
1000
,
0100
0000
0100
0000
,
0010
1000
0100
0001
,
0100
0000
0010
0000
,
0010
1000
0100
0001
,
0010
0000
0100
0000
,
0010
0000
0001
0100
,
0001
0010
0200
0000
,
0000
0300
1000
0010
,
0100
0000
1000
0000
,
0001
0000
0100
0000
,
0010
1000
0200
0000
,
0000
0300
0100
0000
,
0110
0000
0010
0000
,
0110
0000
1000
0100
,
0001
0100
2000
0000
,
0000
3000
1000
0000
,
0001
0000
0001
0000
,
1001
0000
1000
0100
,
0001
0100
2000
0000
,
0000
3000
0100
0000
,
0000
0000
0010
0000
,
0000
0000
1000
0000
,
0000
0000
0001
0000
,
0000
1001
0000
0000
;

//---------------dance-single - ----------------
#NOTES:
     dance-single:
     :
     Medium:
     6:
     :
0000
0000
0000
0000
,
0000
0000
0000
0000
,
0000
0000
0000
0000
,
0000
0000
0000
0000
,
0000
0000
0000
0000
,
0000
0000
0000
0000
,
1000
0100
1000
0010
,
0001
0100
0001
0010
,
1000
0100
1000
0001
,
0100
0010
0100
0000
,
0001
0010
0001
0100
,
1000
0010
1000
0100
,
0001
0010
0001
1000
,
0010
0100
0010
0000
,
1000
0001
0100
0000
,
0010
0100
0001
0010
,
0110
0000
0100
0000
,
1000
0001
1001
0000
,
0110
0000
1001
0000
,
0001
0010
0100
1000
,
1010
0000
0101
0000
,
1001
0100
1001
0000
,
0010
1000
0100
0001
,
0100
1000
0110
0000
,
0001
0100
1000
0100
,
0110
0001
0110
0000
,
0001
1000
0100
0000
0100
0000
0000
0000
,
1000
0001
0010
0000
0010
0000
0000
0000
,
0001
0010
0100
0000
1000
0000
1010
0000
,
0101
0000
1001
0000
,
0010
0100
1000
0001
,
0100
0000
0010
1000
0010
0000
0000
0000
,
1000
0010
0100
0001
,
0010
0100
1000
0100
0010
0000
0001
0000
,
0011
0000
1100
0000
,
0001
0010
0100
0010
0001
0000
0000
0000
,
0100
0000
0000
0010
1000
0000
0000
0001
,
0200
0000
0310
0000
,
0100
0010
0100
0000
0010
0100
0010
0000
,
1000
0100
0010
0001
,
0100
0001
0100
0000
0001
0100
0001
0000
,
0010
0100
1000
0010
,
1000
0010
1000
0000
0010
1000
0010
0000
,
1000
0001
0010
0100
,
1000
0100
1000
0000
0100
1000
0100
0000
,
1000
0010
0001
0100
,
0100
0001
0100
1000
,
0110
0000
0001
0100
,
1000
0100
0110
0001
,
0110
0000
0000
0000
0001
1000
0100
0000
,
0100
0000
0000
0000
1000
0001
0010
0000
,
0010
0000
0000
0000
0001
0010
0100
0000
,
1000
1010
0101
0000
,
1001
0000
0010
0100
,
1000
0000
0001
0000
0100
0000
0010
1000
,
0010
1010
0100
0001
,
0100
0001
2000
0100
,
0100
0000
3100
0000
1000
0100
0001
0000
,
0001
0000
0000
0000
0001
0100
1000
0000
,
1000
0000
1000
0001
,
0100
0010
0200
0010
,
0010
0000
0310
0000
1000
0000
0000
1001
,
0000
0000
0000
0000
0001
0000
0000
1001
,
0000
0000
0110
0000
0010
0000
0000
1001
,
0000
0000
0000
0000
0001
0000
0000
1001
,
0000
0110
0000
0000
;

//---------------dance-single - ----------------
#NOTES:
     dance-single:
     :
     Hard:
     8:
     :
0000
0000
0000
0000
,
0000
0000
0000
0000
,
0000
0000
0000
0000
,
0000
0000
0000
0000
,
0000
0000
0000
0000
,
0000
0000
0000
0000
,
0020
0000
1000
0000
1000
0000
1030
0100
,
0020
0000
0001
0000
0001
0000
0031
0100
,
2000
0000
0100
0000
0100
0000
3100
0001
,
2000
0000
0100
0000
0100
0000
3100
0010
,
0002
0000
1000
0000
1000
0000
1003
0100
,
0002
0000
0100
0000
0100
0000
0103
1000
,
0020
0100
0100
0130
,
0001
0100
1000
0000
1000
0100
0001
0000
,
0210
0301
1001
0000
,
1010
0101
0011
1100
,
1002
0010
0000
0013
,
0011
1100
1010
0101
,
1002
0100
0000
0103
,
0101
1100
1010
0011
,
1001
0000
1100
0000
,
0101
1100
0010
0110
,
0001
0100
0010
0000
0001
0100
0010
0000
,
1000
0100
0010
0000
1000
0000
1010
0000
,
0001
0100
0010
0000
0001
0100
0010
0000
,
1000
0000
0100
0000
0001
0010
0100
0000
,
1000
0100
0010
0000
1000
0100
0010
0000
,
0001
0100
0010
0000
1000
0000
0100
0000
,
0001
0100
1000
0000
0001
0100
1000
0000
,
1000
0010
0001
0010
1000
0100
0010
0000
,
0001
1000
0100
0000
0010
0000
0011
0000
,
1000
0001
0100
0000
0010
0000
1010
0000
,
0100
0000
0010
0000
1000
0001
0100
0000
,
0100
0001
1000
0001
0010
0000
0000
0000
,
0100
0000
1000
0000
0100
1000
0010
0000
,
0100
0000
0001
0000
0100
0001
0010
0000
,
0011
0000
1100
0000
,
0101
0000
1010
0000
,
1000
0010
1000
0100
1000
0001
1000
0100
,
0010
0001
0100
0010
0100
0001
0100
0000
,
0001
0100
0001
0010
0001
1000
0001
0010
,
0100
1000
0010
0100
0010
1000
0010
0000
,
1000
0100
1000
0010
1000
0001
1000
0010
,
0100
0001
0010
1000
0010
0001
0100
0000
,
0001
0100
0001
0010
0001
1000
0001
0010
,
0100
1000
0010
0001
0010
1000
0100
0000
,
1001
0000
1000
0000
0010
1000
0100
0000
,
0010
0000
0010
0000
0001
0100
1000
0000
,
1000
0100
0001
0000
1000
0100
0001
0100
,
1000
0010
1000
0000
0001
0000
0100
0000
,
1001
0000
0001
0000
0010
0001
0100
0000
,
0010
0000
0010
0000
1000
0100
0001
0000
,
0001
0100
1000
0000
0001
0100
1000
0100
,
0001
0010
0001
0000
1000
0000
0100
0000
,
1001
0000
0101
0000
0001
0010
0001
0000
,
1001
0000
1100
0000
1000
0010
1000
0000
,
0100
1000
0100
0000
0010
0001
0100
0001
,
0010
0000
0100
0000
1000
0010
1000
0010
,
1000
0000
1000
0000
0001
0100
0001
0000
,
1010
0000
0101
0000
0010
1000
0100
0000
,
0010
1000
0100
0000
0110
0000
1001
0000
,
0110
0000
0000
0000
0000
0000
0000
0000
1000
0000
0000
0010
0000
0000
1000
0000
,
0000
0000
0010
0000
1000
0000
0000
0000
0100
0000
0000
0010
0000
0000
0100
0000
,
0000
0000
0010
0000
0100
0000
0000
0000
0001
0000
0000
0010
0000
0000
0001
0000
,
0000
0000
0010
0000
0001
0000
0000
0000
0100
0000
0000
0010
0000
0000
0100
0000
,
0000
0010
0110
0000
0000
0000
0000
0000
;
