#TITLE:Nothing But You;
#ARTIST:TRANCE JACK;
#BANNER:Nothing But You.png;
#BACKGROUND:Nothing But You-bg.png;
#CDTITLE:./CDTITLES/Dance Dance Revolution HOTTEST PARTY.png;
#MUSIC:Nothing But You.ogg;
#SAMPLESTART:13.742;
#SAMPLELENGTH:15;
#DISPLAYBPM:140;
#BPMS:0=139.8,8=140;

//---------------dance-single - ----------------
#NOTES:
     dance-single:
     :
     Beginner:
     1:
     :
0000
0000
0000
0000
,
0000
0000
0000
0000
,
0000
0000
0000
0000
,
0000
0000
0000
0000
,
0010
0000
0000
0000
,
0100
0000
0000
0000
,
1000
0000
0001
0000
,
0010
0000
1001
0000
,
0001
0000
0000
0000
,
0010
0000
0000
0000
,
1000
0000
1000
0000
,
0100
0000
0100
0000
,
0001
0000
0000
0000
,
0000
0000
0000
0000
,
0000
0000
0000
0000
,
0000
0000
0000
0000
,
1000
0000
0000
0000
,
0100
0000
0000
0000
,
0001
0000
0001
0000
,
0010
0000
0010
0000
,
1000
0000
0000
0000
,
0000
0000
0000
0000
,
0000
0000
0000
0000
,
0000
0000
0000
0000
,
0100
0000
0000
0000
,
0000
0000
0000
0000
,
0001
0000
0001
0000
,
1000
0000
1000
0000
,
1001
0000
0000
0000
,
0001
0000
0000
0000
,
1000
0000
0001
0000
,
0010
0000
0100
0000
,
0000
0001
0000
0000
,
0000
0000
0000
0000
,
0010
0000
0010
0000
,
0100
0000
0100
0000
,
1001
0000
0000
0000
,
0000
0000
0000
0000
,
0001
0000
1000
0000
,
0010
0000
1000
0000
,
0010
0000
0000
0000
,
0000
0000
0000
0000
,
1000
0000
1000
0000
,
0001
0000
0001
0000
,
1001
0000
0000
0000
,
1000
0000
0000
0000
,
0001
0000
1000
0000
,
0100
0000
0010
0000
,
0000
1000
0000
0000
,
0000
0000
0000
0000
,
0100
0000
0100
0000
,
0010
0000
0010
0000
,
1001
0000
0000
0000
,
0000
0000
0000
0000
,
1000
0000
0001
0000
,
0100
0000
0001
0000
,
0000
0010
0000
0010
,
0000
0100
0000
0100
,
0000
0001
0000
0001
,
0000
1001
0000
0000
,
0110
0000
0000
0000
;

//---------------dance-single - ----------------
#NOTES:
     dance-single:
     :
     Easy:
     3:
     :
0000
0000
0000
0000
,
0000
0000
0000
0000
,
0000
0000
0000
0000
,
0000
0000
0000
0000
,
0020
0000
0000
0030
,
0200
0000
0000
0300
,
1000
0000
0001
0000
,
0010
0100
0010
1001
,
0002
0000
0000
0000
,
0000
0000
0003
0000
,
2000
0000
0000
0000
,
0000
0000
3000
0000
,
0001
0000
0010
0000
,
0100
0000
1000
0000
,
0001
0000
1000
0000
,
0001
1000
1001
0000
,
0002
0000
0000
0000
,
0000
0000
0003
0000
,
2000
0000
0000
0000
,
0000
0000
3000
0000
,
0001
0000
0010
0000
,
0100
0000
1000
0000
,
0001
0000
1000
0000
,
0001
1000
1001
0000
,
0000
0000
0000
0000
,
0000
0000
0000
0000
,
0001
0100
1000
0100
,
0001
0010
1000
0010
,
1000
0000
0000
0000
,
0000
0000
0000
0000
,
0001
0010
0001
0010
,
0100
1000
0100
0000
,
0100
0000
0000
0000
,
0000
0000
0000
0000
,
0001
1001
1000
1001
,
0010
0110
0100
0110
,
0000
0000
0000
0000
,
0000
0000
0000
0000
,
0010
1000
0010
1000
,
0001
0100
0001
0000
,
0000
0000
0000
0000
,
0000
0000
0000
0000
,
0001
0100
1000
0100
,
0001
0010
1000
0010
,
1000
0000
0000
0000
,
0000
0000
0000
0000
,
0001
0010
0001
0010
,
0100
1000
0100
0000
,
0000
0000
0000
0000
,
0000
0000
0000
0000
,
0001
1001
1000
1001
,
0010
0110
0100
0110
,
0010
0000
0000
0000
,
0000
0000
0000
0000
,
0010
1000
0010
1000
,
0001
0100
0001
0000
,
0000
0010
1000
0010
,
1000
0100
1000
0100
,
0010
0001
1000
0100
,
0010
0000
0001
1000
0001
1000
0001
0000
,
2002
0000
0000
0000
,
3003
0000
0000
0000
;

//---------------dance-single - ----------------
#NOTES:
     dance-single:
     :
     Medium:
     6:
     :
0000
0000
0000
0000
,
0000
0000
0000
0000
,
0000
0000
0000
0000
,
0000
0000
0000
0000
,
2020
0000
0000
3030
,
0202
0000
0000
0303
,
1100
0000
0011
0000
,
0001
0000
0000
0000
0001
1000
0001
1000
,
0002
0100
0000
0100
,
0000
0100
0003
0011
,
0200
1000
0000
1300
,
0020
0100
0000
0130
,
0001
0000
0100
0000
,
0010
0000
1000
0000
,
0001
0010
0001
0000
0100
0000
1001
0000
,
1000
0100
1000
0000
0100
0000
1001
0000
,
0002
0100
0000
0100
,
0000
0100
0003
0101
,
0200
1000
0000
1300
,
0020
0100
0000
0130
,
0001
0000
0100
0000
,
0000
0100
1000
0110
,
0001
0010
0001
0000
0001
0010
0001
0000
,
1000
0100
1000
0000
1000
0100
1000
0100
,
1000
1000
0100
0100
,
0010
0010
0001
0101
,
1001
0000
0010
0000
,
1001
0000
0100
0000
,
1000
0000
0000
0100
0000
0000
0010
0000
0001
0000
0000
0010
0000
0000
0010
0000
,
0001
0000
0000
0010
0000
0000
0100
0000
1000
0000
0000
0100
0000
0000
0100
0000
,
0001
0000
0000
1000
0000
0000
0001
0000
0001
0000
0000
1000
0000
0000
0001
0000
,
1000
0000
0000
0001
0000
0000
1000
0000
1000
0000
0000
0001
0000
0000
1000
0000
,
0001
1002
0000
0100
,
0000
0010
0003
1001
,
0020
1000
0000
1000
,
0230
0010
0000
0010
,
0302
1000
0000
1000
,
0000
0100
0000
0103
,
0100
1000
0100
0000
0100
1000
0100
0000
,
0010
0001
0010
0000
0010
0001
0010
0001
,
1000
1000
0100
0100
,
0010
0010
0001
0101
,
1001
0000
0010
0000
,
1001
0000
0100
0000
,
0100
0000
0000
0001
0000
0000
1000
0000
0010
0000
0000
1000
0000
0000
1000
0000
,
0010
0000
0000
1000
0000
0000
0001
0000
0100
0000
0000
1000
0000
0000
1000
0000
,
0010
0000
0000
0100
0000
0000
0010
0000
0010
0000
0000
0100
0000
0000
0010
0000
,
0100
0000
0000
0010
0000
0000
0100
0000
0100
0000
0000
0010
0000
0000
0100
0000
,
0001
1002
0000
0100
,
0000
0010
0003
1001
,
0020
1000
0000
1000
,
0230
0010
0000
0010
,
0302
1000
0000
1000
,
0000
0100
0000
0103
,
0100
1000
0100
0000
0100
1000
0100
0000
,
0010
0001
0010
0000
0010
0001
0010
1000
,
0100
1000
0001
0001
,
0100
0001
1000
1000
,
0010
1000
0010
1000
0001
0100
0001
0000
,
0010
1000
0010
1000
0001
0100
0001
0100
,
2002
0000
0000
0000
,
3003
0000
0000
0000
;

//---------------dance-single - ----------------
#NOTES:
     dance-single:
     :
     Hard:
     8:
     :
0000
0000
0000
0000
,
0000
0000
0000
0000
,
0000
0000
0000
0000
,
0000
0000
0000
0000
,
2002
0000
0000
3003
,
0220
0000
0000
0330
,
1001
0000
0110
0000
,
1010
0000
0000
0000
0101
0000
0000
0000
1001
0000
0000
0010
0100
0010
0000
0000
,
1000
0001
1000
0000
1000
0100
0010
0001
,
0010
0100
0010
0000
0010
0001
0010
0100
,
1000
0100
0001
0100
0010
0100
0110
0000
,
0010
0100
0010
0001
1000
0001
1001
0001
,
0010
0001
0100
0010
1000
0100
1010
0010
,
0100
1000
0010
0100
0001
0010
0101
0000
,
0001
0000
0000
0010
0000
0000
1000
0000
1000
0000
0000
0010
0000
0000
0001
0000
,
0001
0000
0000
0100
0000
0000
1000
0000
1000
0000
0000
0100
0000
0000
0001
0000
,
0001
1000
0001
0000
0001
0100
0010
1000
,
0010
0100
0010
0000
0010
1000
0010
0100
,
0001
0100
1000
0100
0010
0100
0110
0000
,
0010
0100
0010
1000
0001
1000
1001
1000
,
0010
1000
0100
0010
0001
0100
0011
0010
,
0100
0001
0010
0100
1000
0010
1100
0000
,
1000
0000
0000
0100
0000
0000
0001
0000
0001
0000
0000
0100
0000
0000
1000
0000
,
1000
0000
0000
0010
0000
0000
0001
0000
0001
0000
0000
0010
0000
0000
1000
0000
,
2100
0100
0010
0010
,
0001
0000
0000
0001
0000
0000
0001
0000
3100
0000
0000
0000
0110
0000
0000
0000
,
0102
0000
0100
0000
1000
0000
1000
0003
,
0021
0001
0100
0130
,
0210
0010
1000
1000
,
0001
0001
0310
0010
,
1000
0000
0010
0000
0001
0010
1000
0000
,
0001
0000
0100
0000
1000
0100
0001
0000
,
1001
0000
0000
0100
0000
0000
0010
0000
0100
0000
0000
0010
0000
0000
0001
0000
,
0010
0000
0000
0100
0000
0000
1000
0000
0100
0000
0000
0010
0000
0000
0001
0000
,
0010
0001
0100
0010
1000
0100
1000
0100
,
0100
1000
0010
0100
0001
0010
0001
0010
,
0001
0010
1000
0010
1000
0010
0001
1000
,
0100
0010
0100
0010
0001
1000
0001
1000
,
0001
0000
0000
0010
0000
0000
1000
0000
1000
0000
0000
0010
0000
0000
0001
0000
,
0001
0000
0000
0100
0000
0000
1000
0000
0010
0000
0010
0000
0010
0000
0010
0000
,
0102
0100
0010
0010
,
1000
0000
0000
1000
0000
0000
1000
0000
0103
0000
0000
0000
0110
0000
0000
0000
,
2100
0100
0001
3001
,
1020
1000
0100
0130
,
0210
0010
0001
0001
,
1000
1000
0310
0010
,
1000
0000
0100
0000
0001
0100
1000
0000
,
0001
0000
0010
0000
1000
0010
0001
0000
,
1001
0000
0000
0010
0000
0000
0100
0000
0010
0000
0000
0100
0000
0000
1000
0000
,
0100
0000
0000
0010
0000
0000
0001
0000
0010
0000
0000
0100
0000
0000
1000
0000
,
0100
1000
0010
0100
0001
0010
0001
0010
,
0010
0001
0100
0010
1000
0100
1000
0100
,
1000
0100
0001
0100
0001
0100
1000
0001
,
0010
0100
0010
0100
1000
0001
1000
0001
,
1000
0000
0000
0100
0000
0000
0001
0000
0001
0000
0000
0100
0000
0000
1000
0000
,
1000
0000
0000
0010
0000
0000
0001
0000
0100
0000
0100
0000
0100
0000
0100
0000
,
1001
0000
0000
1000
0001
0000
1000
0010
0000
0000
0100
0010
0000
0000
0000
0000
,
0110
0000
0000
0010
0100
0000
0010
1000
0000
0000
0100
0001
0000
0000
0000
0000
,
1001
0000
0000
0100
0010
0000
0001
0010
0000
0000
0100
1000
0000
0000
0000
0000
,
0100
0100
0110
0010
0001
0001
0110
0100
,
2200
0000
0000
0000
,
3300
0000
0000
0000
;
