#TITLE:Moving On;
#ARTIST:J.J. Pops;
#BANNER:Moving On.png;
#BACKGROUND:Moving On-bg.png;
#CDTITLE:./CDTITLES/Dance Dance Revolution HOTTEST PARTY.png;
#MUSIC:Moving On.ogg;
#SAMPLESTART:57.433;
#SAMPLELENGTH:15;
#BPMS:0=140;

//---------------dance-single - ----------------
#NOTES:
     dance-single:
     :
     Beginner:
     1:
     :
0000
0000
0000
0000
,
0000
0000
0000
0000
,
0000
0000
0000
0000
,
0000
0000
0000
0000
,
2000
0000
3000
0000
,
1000
0000
0000
0000
,
0002
0000
0003
0000
,
1000
1000
0000
0000
,
2000
0000
0000
0000
,
0000
0000
3000
0000
,
0002
0000
0003
0000
,
1000
0000
0001
0000
,
2000
0000
3000
0000
,
0001
0000
1000
0000
,
0002
0000
0003
0000
,
2000
0000
3000
0000
,
2000
0000
0000
0000
,
0000
0000
0000
3000
,
0000
0000
0000
0000
,
0001
0000
0000
0000
,
1000
1000
0000
0000
,
0100
0000
0000
0000
,
1000
0000
0000
0000
,
1000
0000
0000
0000
,
0001
0001
0000
0000
,
1001
0000
1000
0000
,
0010
0000
0000
0000
,
0100
0000
0000
0000
,
0001
0000
0000
0000
,
0001
0000
0000
0000
,
1000
0000
0000
0000
,
0001
0000
1000
0000
,
0010
0000
0200
0000
,
0000
0300
0000
0000
,
0010
0000
0000
0000
,
1000
0000
0000
0000
,
0100
0000
0000
0000
,
0001
0001
0001
0000
,
1000
1000
0000
0000
,
0001
0001
0000
0000
,
0100
0000
0000
0000
,
1001
0000
0000
0000
,
0100
0000
0000
0000
,
0001
0000
0000
0000
,
0010
0000
0000
0000
,
1000
1000
1000
0000
,
1000
1000
0000
0000
,
0100
0000
0000
0000
,
2000
0000
3000
0000
,
0002
0000
0003
0000
,
2000
0000
0000
0000
,
0000
0000
3000
0000
,
0002
0000
0003
0000
,
1000
0000
0001
0000
,
2000
0000
3000
0000
,
0002
0000
0003
0000
,
0002
0000
0000
0000
0000
0000
0000
0003
;

//---------------dance-single - ----------------
#NOTES:
     dance-single:
     :
     Easy:
     3:
     :
0000
0000
0000
0000
,
0000
0000
0000
0000
,
0000
0000
0000
0000
,
0000
0000
0000
0000
,
2000
0000
3000
0000
,
0200
0000
0300
0000
,
0002
0000
0003
0000
,
0200
0000
0300
0000
,
0020
0000
0000
0000
,
0000
0000
0030
0000
,
0002
0000
0000
0000
,
0203
0000
0300
0000
,
2000
0000
3000
0000
,
0020
0000
0030
0000
,
2000
0000
0000
0000
,
3020
0000
0030
0000
,
0002
0000
0000
0000
,
0000
0000
0000
0003
,
0000
0000
1000
1000
,
0001
0001
0100
0000
,
1000
1000
0000
0000
,
0110
1001
0110
0000
,
0000
0000
0001
0001
,
1000
1000
0100
0000
,
0001
0001
0000
0000
,
0001
1000
0010
0100
,
0000
0000
0001
0001
,
0100
0000
0100
0000
,
1000
0000
1000
1000
,
0001
0001
0001
0000
,
1000
1000
0110
0000
,
0001
0001
0000
0000
,
0110
0000
0220
0000
,
0000
0330
0000
0000
,
0000
0000
0010
0000
,
1000
0000
0001
0000
,
0100
0000
0000
0000
,
1001
0110
0110
0000
,
0000
0000
0100
0000
,
0001
0000
0100
0000
,
0100
0000
0000
0000
,
0110
0110
1001
0000
,
0000
0000
0100
0000
,
0001
0000
1000
0000
,
0010
0000
0000
0000
,
1001
0110
1001
0000
,
0000
0000
0010
0000
,
0100
0000
1000
0000
,
0020
0000
0030
0000
,
0002
0000
0000
0003
,
2000
0000
0000
0000
,
0000
0000
0000
3000
,
0002
0000
0003
0000
,
0200
0000
0300
0000
,
0002
0000
0000
0000
,
0203
0000
0300
0000
,
2002
0000
0000
0000
0000
0000
0000
3003
;

//---------------dance-single - ----------------
#NOTES:
     dance-single:
     :
     Medium:
     5:
     :
0000
0000
0000
0000
,
0000
0000
0000
0000
,
0000
0000
0000
0000
,
0000
0000
0000
0000
,
2000
0000
0000
3000
,
0020
0000
0000
0030
,
2000
0010
0010
3010
,
0002
1000
1000
1003
,
2000
0100
0100
3100
,
0202
0000
0000
0303
,
1001
0000
1000
0000
0001
1000
0010
0000
,
0001
0000
0001
0000
1000
0100
0010
0000
,
0001
1000
0001
0000
0100
0000
0100
0000
,
0000
0101
0000
1010
,
1000
0001
1000
0001
0001
1000
0010
0000
,
0001
1000
0001
1000
1000
0100
0010
0000
,
0001
0000
1000
0000
0001
0000
1000
0000
0010
0000
0000
0100
0000
0000
2002
0000
,
0000
0000
0000
3003
,
0000
0000
0001
0000
1000
0100
0000
0001
,
0000
0000
0010
0000
0000
0100
0000
0000
1000
0000
0000
0000
1000
0000
0000
0000
,
1000
0000
1010
0000
0001
0010
0000
1000
,
0000
0200
0000
0000
0000
0000
0300
0000
,
0000
0000
1000
0000
0001
0010
0000
1000
,
0000
0000
0100
0000
0000
0010
0000
0000
0001
0000
0000
0000
0001
0000
0000
0000
,
0001
0000
0101
0000
1000
0000
0100
0100
,
0000
0010
0100
0000
0001
0000
1001
0000
,
1001
0010
0100
1001
,
0000
0010
1000
0010
,
0001
0010
1000
0100
,
0001
1000
1001
0000
,
0100
1001
0010
1001
,
1000
1000
0001
0001
,
0200
0000
0020
0000
,
0000
0330
0000
1000
,
0200
0300
0100
1000
,
1200
0300
0100
0001
,
0201
0000
0000
0302
0000
0000
0013
0000
,
0100
1000
0010
1001
,
1000
1100
0010
0000
,
0001
0011
0100
0000
,
0010
0000
0000
0000
1000
0000
0000
0000
0010
0000
0000
0100
0000
0000
0001
0000
,
1000
0000
0000
0100
0000
0000
0010
0000
0001
0000
0000
0000
1001
0000
0000
0000
,
0200
0300
0100
1000
,
0020
0030
0010
0100
,
0200
0000
0000
0302
0000
0000
0103
0000
,
2000
3000
0002
0003
,
0001
0011
0100
1000
,
1100
0010
0001
0011
,
0100
0010
0100
0110
,
1000
0000
0001
0000
1000
0001
1000
0001
,
2000
0000
0000
0000
,
0000
0000
0000
3000
,
1000
0001
1000
0000
0010
0000
0010
0000
,
0000
1010
0000
0101
,
0001
1000
0001
1000
1000
0001
0100
0000
,
1000
0001
1000
0001
0001
0010
0100
0000
,
1000
0000
0001
0000
1000
0000
0001
0000
0100
0000
0000
0010
0000
0000
2002
0000
,
0000
0000
0000
3003
;

//---------------dance-single - ----------------
#NOTES:
     dance-single:
     :
     Hard:
     8:
     :
0000
0000
0000
0000
,
0000
0000
0000
0000
,
0000
0000
0000
0000
,
0000
0000
0000
0000
,
1001
0001
1000
0001
0000
1000
0001
1000
,
0000
0010
0100
0010
0000
0100
0010
0100
,
0011
0001
1000
0001
0000
1000
0001
1000
,
1100
1000
0001
1000
0000
0001
1000
0001
,
0101
0100
0010
0100
0000
0010
0100
0010
,
2020
0000
0000
3030
,
0001
0000
1000
0000
0001
1000
0000
0000
1000
0000
0000
0010
0100
0000
0001
0000
,
1000
0000
0001
0000
1000
0001
0000
0000
0100
0000
0000
0010
0100
0000
1000
0000
,
0001
0000
1000
0000
0001
1000
0000
0000
0010
0000
0000
0100
0010
0000
0001
0000
,
0100
0000
0010
0000
0100
0010
0000
0000
0010
0000
0000
1000
0010
0000
0100
0000
,
0010
0000
1000
0000
0010
0000
1000
0000
0010
0000
0000
0010
0100
0000
0001
0000
,
0001
0000
0010
0000
0001
0000
0010
0000
0100
0000
0000
0100
0010
0000
0001
0000
,
0001
0000
1000
0000
0001
0000
1000
0000
1100
0000
0000
0011
0000
0000
2002
0000
,
0000
0000
0000
3003
,
0000
0000
1000
0000
0000
0100
0000
0000
0010
0000
0000
0100
0000
0000
1001
0000
,
0000
0000
0100
0000
0000
0001
0000
0000
0100
0000
0000
1000
0000
0000
0110
0000
,
0000
0000
0010
0000
0000
0001
0000
0000
0010
0000
0000
1000
0000
0000
0010
0000
,
0000
0000
1000
0000
0000
0001
0000
0000
0100
0000
0000
0010
0000
0000
0101
0000
,
0000
0000
0001
0000
0000
0010
0000
0000
0100
0000
0000
0010
0000
0000
1001
0000
,
0000
0000
0010
0000
0000
1000
0000
0000
0010
0000
0000
0001
0000
0000
0110
0000
,
0000
0000
0100
0000
0000
1000
0000
0000
0100
0000
0000
0001
0000
0000
0100
0000
,
0000
0010
0010
0000
0101
0000
1010
0000
,
1000
0100
1000
0010
1000
0100
1000
0010
,
1000
0100
0001
0100
1000
0010
0001
0010
,
0100
1000
0100
0001
0100
1000
0100
0001
,
0010
1000
0010
0001
0010
1000
0010
0001
,
0010
0100
1000
0000
1100
0000
0011
0001
,
0011
0000
0110
0000
1100
1000
1100
0000
,
0120
0000
0000
0100
0200
0000
0000
0000
,
0000
0330
0000
0000
,
1100
0000
0100
0001
0100
0001
1100
0000
,
0011
0000
0010
1000
0010
1000
0011
0000
,
1010
0000
0000
0110
0000
0000
0101
0000
,
0010
0000
0000
0100
0000
0000
0100
0000
0010
0000
0000
0000
1001
0000
0000
0000
,
0100
1000
0100
0001
0100
0010
0110
0000
,
0011
0000
0100
0010
0110
0000
1100
0000
,
1000
0000
0000
0000
0100
0000
0000
0000
0001
0000
0000
0100
0000
0000
0010
0000
,
0010
0000
0000
1000
0000
0000
0001
0000
0100
0000
0000
0000
1001
0000
0000
0000
,
1010
0000
0010
0001
0010
0001
1010
0000
,
0101
0000
0100
1000
0100
1000
0101
0000
,
1010
0000
0010
1001
0010
0000
1010
0000
,
1001
0000
0000
0000
0000
0110
0000
0110
0000
0000
0000
0000
1001
0000
0000
0000
,
0011
0000
0000
0110
0000
0000
1100
0000
,
0100
0001
1000
0010
1000
0001
0100
0000
,
1010
0010
0100
0010
0001
0010
0100
0100
,
0010
1000
0001
0100
0001
1000
0010
0100
,
0220
0000
0000
0000
,
0000
0000
0000
0000
0000
0000
0000
0330
,
1000
0000
0001
0000
1000
0001
0000
0000
0010
0000
0000
0100
0010
0000
1000
0000
,
0100
0000
0010
0000
0100
0010
0000
0000
0010
0000
0000
0001
0010
0000
0100
0000
,
0010
0000
0001
0000
0010
0000
0001
0000
0010
0000
0000
0010
0100
0000
1000
0000
,
1000
0000
0010
0000
1000
0000
0010
0000
0100
0000
0000
0100
0010
0000
1000
0000
,
1000
0000
0001
0000
1000
0000
0001
0000
0101
0000
0000
1010
0000
0000
2002
0000
,
0000
0000
0000
0000
,
0000
0000
0000
3003
;
