#TITLE:Little L;
#ARTIST:Single Funk;
#BANNER:Little L.png;
#BACKGROUND:Little L-bg.png;
#CDTITLE:./CDTITLES/Dance Dance Revolution HOTTEST PARTY.png;
#MUSIC:Little L.ogg;
#SAMPLESTART:27.539;
#SAMPLELENGTH:15;
#DISPLAYBPM:122;
#BPMS:0=121.86,8=122;

//---------------dance-single - ----------------
#NOTES:
     dance-single:
     :
     Beginner:
     1:
     :
0000
0000
0000
0000
,
0000
0000
0000
0000
,
0000
0000
0000
0000
,
0000
0000
0000
0000
,
0000
0000
0000
0000
,
0000
0000
0000
0000
,
0000
0100
0000
0000
,
0000
0100
0000
0000
,
0000
0001
0000
1000
,
0000
0001
0000
1000
,
0000
0100
0000
0000
,
0000
0100
0000
0000
,
0100
0100
0000
1001
,
0000
0000
0000
0000
,
1000
1000
0000
0000
,
0001
0001
0000
0000
,
0000
0000
0000
0000
,
0000
0000
0000
0000
,
0001
0001
0000
0000
,
1000
1000
0000
0000
,
0000
0000
0000
0000
,
0000
0000
0000
0000
,
0000
0000
0001
0001
,
0000
0000
1000
1000
,
0000
0000
0100
0100
,
0000
0000
0001
0000
,
0002
0000
0000
0000
,
0000
0000
0000
0003
,
0000
0000
0000
0000
,
0100
0100
0000
0110
,
0000
0001
0000
1000
,
0000
0001
0000
1000
,
0000
0000
0000
0000
,
0000
0000
0000
0000
,
0000
0001
0000
1000
,
0000
0010
0000
1000
,
0000
0000
0000
0000
,
0000
0000
0000
0000
,
0000
1000
0000
0001
,
0000
1000
0000
0001
,
0000
0000
0000
0000
,
0000
0000
0100
0100
,
0000
0001
0000
1000
,
0000
0001
0000
1000
,
0000
0000
0000
0000
,
0000
0000
0010
0010
,
0000
0000
0100
0000
,
1000
0000
1000
0000
,
0100
0000
0100
0000
,
0001
0001
0001
0000
,
0110
0000
0000
0000
;

//---------------dance-single - ----------------
#NOTES:
     dance-single:
     :
     Easy:
     3:
     :
0000
0000
0000
0000
,
0000
0000
0000
0000
,
0000
0000
0000
0000
,
0000
0000
0000
0000
,
0000
0000
0000
0000
,
0000
0000
0000
0000
,
0000
0010
0000
0010
,
0000
0100
0000
0100
,
0000
1000
0000
0001
,
0000
1000
0000
0001
,
0000
0010
0000
0100
,
0000
0100
0000
0010
,
0000
1000
0100
0001
,
0010
0000
0000
0000
,
0000
0001
0000
0010
,
1000
0001
1000
0001
,
0000
0000
0000
0000
,
0000
0000
0001
0001
,
0000
1000
0000
0010
,
0001
1000
0001
1000
,
0000
0000
0000
0000
,
0000
0000
1000
1000
,
0000
0001
0000
0001
,
0000
1000
0000
1000
,
0000
0001
0000
0001
,
0000
1000
0000
1000
,
0200
0000
0000
0000
,
0000
0000
0000
0300
,
0000
0000
0000
0000
,
0110
1001
0100
0100
,
0000
1000
0100
0001
,
0100
1000
0100
0001
,
0000
0000
0000
0000
,
0000
0000
0000
0000
,
0000
1000
0010
0001
,
0010
1000
0010
0001
,
0000
0000
0000
0000
,
0000
0000
0000
0000
,
0000
1001
0010
0100
,
0001
0010
1000
1001
,
0000
0000
0000
0000
,
0000
0000
0000
0000
,
0000
1001
0100
0010
,
0001
0100
1000
1001
,
0000
0000
0000
0000
,
0000
0000
0000
0000
,
0010
1000
0100
0000
,
0001
0010
0100
0000
,
1000
0100
0010
0000
,
0001
1000
0100
1001
,
0010
0000
0000
0000
;

//---------------dance-single - ----------------
#NOTES:
     dance-single:
     :
     Medium:
     5:
     :
0000
0000
0000
0000
,
0000
0000
0000
0000
,
0000
0000
0000
0000
,
0000
0000
0000
0000
,
0000
0000
0000
0000
,
0000
0000
0000
0000
,
0010
0010
0000
0000
,
0100
0100
0000
0000
,
0001
0000
1000
0000
0001
1000
0001
0000
,
1000
0000
0001
0000
1000
0001
1000
0000
,
0010
0001
0000
0000
,
0100
1000
0000
0000
,
0010
0010
1000
0001
0100
0001
1000
0100
,
0020
0030
0000
0000
,
0000
0011
1100
0010
,
1000
0001
0100
0000
1001
0000
0010
1000
,
0001
0100
0100
0000
0000
0000
0000
0000
,
0000
0000
0001
0001
,
0000
1010
0101
0010
,
0001
1000
0100
0000
1001
0000
0010
0001
,
0100
0010
0010
0000
0000
0000
0000
0000
,
0000
0000
1000
1000
,
0001
0000
0100
1000
0010
0000
0100
0000
,
0001
0000
0010
0100
1000
0000
0010
0000
,
0001
0000
1000
0100
0010
0000
1000
0000
,
0001
0000
0100
0010
1000
0001
0100
0001
,
2000
0001
0000
0001
,
0000
0001
0000
3001
,
0010
0010
1001
0000
0010
0010
1001
0000
,
1100
0000
0011
0000
1000
0010
0100
0001
,
0100
0000
1000
0000
0100
1000
0001
0000
,
0100
0001
0100
0000
0100
0000
1001
0000
,
0010
1000
1000
0000
0000
0000
0000
0000
,
0000
0000
1000
1000
,
0010
0000
0001
0000
0010
0001
1000
0000
,
0010
1000
0010
0000
0010
0000
1001
0000
,
0100
0001
0001
0000
0000
0000
0000
0000
,
0000
0000
0001
0001
,
0000
1001
0011
1100
,
0001
0100
0010
0000
1000
0000
1001
0000
,
0010
0100
0100
0000
0000
0000
0000
0000
,
0000
0000
0100
0100
,
0000
1001
1100
0011
,
1000
0010
0100
0000
0001
0000
1001
0000
,
0100
0010
0010
0000
0000
0000
0000
0000
,
0000
0000
0010
0010
,
1000
0100
0010
0000
0010
0100
1000
0000
,
0010
0001
0010
0100
0010
0001
0100
0000
,
0001
0010
0100
0000
0100
0010
0001
0000
,
0100
0010
0001
1000
0100
0010
0001
0000
,
1001
0000
0000
0000
;

//---------------dance-single - ----------------
#NOTES:
     dance-single:
     :
     Hard:
     7:
     :
0000
0000
0000
0000
,
0000
0000
0000
0000
,
0000
0000
0000
0000
,
0000
0000
0000
0000
,
0000
0000
0000
0000
,
0000
0000
0000
0000
,
1000
0000
0001
0000
0100
0010
0100
0000
,
0001
0000
0010
0000
1000
0100
1000
0010
,
0100
0000
0010
0000
1000
0100
0010
0100
,
1000
0100
0010
0001
0011
0000
1100
0000
,
0001
0000
1000
0000
0010
0100
0010
0000
,
1000
0000
0100
0000
0001
0010
0001
0100
,
1000
0001
0010
0100
1000
0100
0010
0100
,
0001
0100
0010
0001
0101
0000
1010
0000
,
1000
0011
1100
0010
,
1000
0001
0100
0000
1010
0000
0101
0000
,
0001
0001
0001
0000
0000
1000
0100
0010
,
0100
2000
0000
0000
3001
0000
0001
0000
,
0100
0011
1010
0100
,
0001
1000
0010
0100
0010
0100
0001
1000
,
0000
1000
1000
0000
0000
0001
0010
0100
,
0010
0002
0000
0000
1003
0000
1000
0000
,
0100
0000
0000
0010
0000
0000
1000
0000
0100
0000
0000
0010
0000
0000
0001
0000
,
1000
0000
0000
0100
0000
0000
0001
0000
0100
0000
0000
1000
0000
0000
0001
0000
,
0100
0000
0000
0010
0000
0000
0001
0000
0100
0000
0000
0010
0000
0000
1000
0000
,
0001
0000
0000
0100
0000
0000
1000
0000
0100
0000
0000
0001
0000
0000
1000
0000
,
2000
0001
0000
0100
,
0000
0000
0001
0000
0100
0100
3100
0000
,
1000
0001
0100
0010
0001
0010
0100
0000
,
0110
1001
1100
0011
,
1000
1000
0011
0000
1100
0000
0010
0010
,
1000
0001
0100
0001
1010
0000
0101
0000
,
0010
0110
0110
0000
0000
1000
0100
0010
,
0100
1000
0100
0000
0001
0000
0001
0000
,
0001
0001
1100
0000
0011
0000
0100
0100
,
0001
1000
0010
1000
0101
0000
1010
0000
,
0100
0110
0110
0000
0000
0001
0010
0100
,
0010
0001
0010
0000
1000
0000
1000
0000
,
0000
0011
1100
0010
,
1000
0100
1010
0101
,
1000
0100
0001
0000
0001
0100
1000
0000
,
1000
0100
0010
0000
0001
0000
0001
0000
,
0000
1100
0011
0100
,
0001
0010
0101
1010
,
0001
0010
1000
0000
1000
0010
0001
0000
,
0001
0010
0100
0000
1000
0000
1000
0000
,
1000
0010
0000
1000
0010
0000
0100
0001
0000
0100
0001
0000
1000
0010
0000
1000
,
0010
0000
0100
0001
0000
0100
0001
0000
1000
0010
0000
1000
0000
0000
0001
0000
,
0001
0100
0000
0001
0100
0000
0010
1000
0000
0010
1000
0000
0001
0100
0000
0001
,
0100
0000
0010
1000
0000
0010
1000
0000
0001
0100
0000
0001
0100
0000
0001
0000
,
1001
0000
0000
0000
;
